<?xml version="1.0" standalone="no"?> <!DOCTYPE svg PUBLIC "-//W3C//DTD SVG 1.0//EN" "http://www.w3.org/TR/2001/REC-SVG-20010904/DTD/svg10.dtd" > <svg xmlns="http://www.w3.org/2000/svg" width="100%" height="100%">
<defs >
<font id="steinem" horiz-adv-x="434" ><font-face
    font-family="Steinem"
    units-per-em="1000"
    panose-1="2 0 5 0 0 0 0 0 0 0"
    ascent="708"
    descent="-223"
    alphabetic="0" />
<missing-glyph horiz-adv-x="502" d="M-1 0H499V500H-1V0ZM9 10V490H489V10H9Z" />
<glyph unicode=" " glyph-name="space" horiz-adv-x="278" />
<glyph unicode="!" glyph-name="exclam" horiz-adv-x="243" d="M175 699Q175 708 166 708H94Q86 708 86 699L91 232Q91 222 99 222H161Q170 222 170 232L175 699ZM190 56Q190 84 173 104T130 125Q105 125 88 105T70 56Q70 28 88 8T130 -12Q154 -12 172 8T190 56Z" />
<glyph unicode="&quot;" glyph-name="quotedbl" horiz-adv-x="442" d="M368 701Q368 711 359 711H266Q256 711 256 701L272 479Q272 471 282 471H343Q352 471 352 479L368 701ZM204 701Q204 711 195 711H102Q92 711 92 701L108 479Q108 471 117 471H179Q188 471
188 479L204 701Z" />
<glyph unicode="#" glyph-name="numbersign" horiz-adv-x="548" d="M522 421Q532 421 532 431V491Q532 501 522 501H438L466 697Q466 708 457 708H392Q385 708 383 699L355 501H253L281 697Q281 708 271 708H207Q199 708 197 699L169 501H74Q64 501 64 491V431Q64
421 74 421H158L139 289H45Q36 289 36 279V219Q36 209 45 209H128L101 11Q101 0 111 0H175Q183 0 185 9L211 209H313L286 11Q286 0 296 0H360Q368 0 370 9L397 209H493Q503 209 503 219V279Q503 289 493 289H409L427 421H522ZM241 421H343L325 289H223L241 421Z"
/>
<glyph unicode="$" glyph-name="dollar" horiz-adv-x="545" d="M510 198Q510 243 496 276T458 333T401 372T322 403V632Q363 631 393 624T455 604Q456 604 457 604Q458 603 458 603Q465 603 467 609L487 663Q487 664 487 665Q488 666 488 667Q488 673 482 675Q454
687 410 698T322 711V778Q322 788 313 788H261Q252 788 252 778V710Q166 698 116 649T66 521Q66 479 82 448T124 394T182 358T252 329V83Q204 84 166 95T83 124L80 125Q80 125 78 126Q76 126 76 126Q67 126 67 116V46Q67 39 73 37Q111 22 156 12T252 0V-71Q252
-81 261 -81H313Q322 -81 322 -71V4Q410 17 460 68T510 198ZM413 196Q413 154 389 128T322 90V305Q368 286 390 262T413 196ZM159 532Q159 570 182 595T252 629V427Q201 448 180 472T159 532Z" />
<glyph unicode="%" glyph-name="percent" horiz-adv-x="1116" d="M1039 186Q1039 227 1024 263T982 327T918 369T840 384Q799 384 763 369T699 327T656 263T641 186Q641 145 656 109T699 46T762 3T840 -12Q881 -12 917 3T981 45T1024 109T1039 186ZM495 523Q495
564 480 600T438 664T374 706T296 721Q255 721 219 706T155 664T112 601T97 523Q97 482 112 446T154 383T218 341T296 326Q337 326 373 341T437 383T480 446T495 523ZM878 689Q881 692 881 696Q881 700 876 703L824 739Q822 741 819 741Q814 741 811 737L258 20Q256
18 256 14Q256 10 259 7L311 -29Q313 -31 317 -31Q322 -31 325 -27L878 689ZM951 186Q951 139 919 105T840 70Q795 70 763 104T730 186Q730 234 762 268T840 302Q886 302 918 268T951 186ZM406 523Q406 476 374 442T296 407Q250 407 218 441T185 523Q185 571 217
605T296 639Q341 639 373 605T406 523Z" />
<glyph unicode="&amp;" glyph-name="ampersand" horiz-adv-x="708" d="M711 57L688 90Q686 94 681 94Q678 94 675 92Q666 85 658 81T642 76Q625 76 607 94L532 172Q533 174 535 177Q537 180 538 182L537 181L540 185L542 189L620 316H667Q677 316 677 326V381Q677
390 667 390H572Q566 390 563 385L476 238Q475 238 473 234L330 383Q405 423 442 463T479 564Q479 638 428 679T299 721Q220 721 166 677T112 556Q112 511 132 476T193 396Q118 356 80 306T42 184Q42 141 59 105T108 42T177 2T256 -12Q321 -12 373 12T477 97L537
36Q560 13 576 7T610 0Q639 0 665 14T710 45L711 57ZM265 67Q213 67 175 105T136 196Q136 238 164 271T249 338L420 157Q346 67 265 67ZM392 563Q392 530 363 500T277 438L272 444Q240 477 222 503T204 558Q204 603 231 628T300 653Q340 653 366 628T392 563Z"
/>
<glyph unicode="&apos;" glyph-name="quotesingle" horiz-adv-x="237" d="M177 701Q177 711 168 711H85Q77 711 77 701L91 479Q91 471 99 471H154Q162 471 162 479L177 701Z" />
<glyph unicode="(" glyph-name="parenleft" horiz-adv-x="259" d="M258 -116Q262 -113 262 -109Q262 -107 260 -104Q200 -2 173 85T146 286Q146 392 174 490T260 672Q262 675 262 679Q262 684 258 686L202 727Q200 729 197 729Q192 729 189 725Q123 629 87 517T51
286Q51 172 86 58T189 -154Q192 -157 196 -157Q199 -157 201 -155L258 -116Z" />
<glyph unicode=")" glyph-name="parenright" horiz-adv-x="259" d="M227 286Q227 399 191 513T89 725Q86 729 82 729Q79 729 77 727L20 687Q16 685 16 680Q16 680 17 678Q17 676 17 675Q78 573 105 486T132 286Q132 179 103 81T17 -101Q17 -102 16 -104Q16 -106
16 -107Q16 -111 19 -114L76 -155Q78 -157 81 -157Q86 -157 89 -154Q155 -58 191 54T227 286Z" />
<glyph unicode="*" glyph-name="asterisk" horiz-adv-x="428" d="M410 555Q416 557 416 563Q416 564 415 565Q415 566 415 567L393 635Q391 642 384 642Q383 642 382 641Q381 641 380 641L262 594L269 720Q269 730 260 730H187Q178 730 178 720L184 594L67 641Q66
641 65 641Q64 642 63 642Q56 642 54 635L31 567Q31 566 31 565Q30 564 30 564Q30 558 37 555L159 519L81 421Q79 419 79 416Q79 411 83 408L140 364Q143 362 145 362Q150 362 153 367L223 475L297 366Q299 362 304 362Q307 362 310 364L367 408Q372 411 372 415Q372
419 369 421L287 519L410 555Z" />
<glyph unicode="+" glyph-name="plus" horiz-adv-x="549" d="M535 257Q545 257 545 267V336Q545 346 535 346H329V553Q329 562 320 562H248Q239 562 239 553V346H33Q23 346 23 336V267Q23 257 33 257H239V50Q239 40 248 40H320Q329 40 329 50V257H535Z" />
<glyph unicode="," glyph-name="comma" horiz-adv-x="254" d="M207 90L125 113Q114 113 113 105Q105 55 86 -1T47 -96Q47 -97 47 -98Q46 -100 46 -100Q46 -107 53 -109L102 -126Q110 -126 112 -124Q140 -90 169 -34T213 78L207 90Z" />
<glyph unicode="-" glyph-name="hyphen" horiz-adv-x="313" d="M279 160Q288 160 288 168V228Q288 236 279 236H53Q43 236 43 228V168Q43 160 53 160H279Z" />
<glyph unicode="." glyph-name="period" horiz-adv-x="243" d="M190 50Q190 74 173 92T130 110Q105 110 88 92T70 50Q70 25 88 8T130 -10Q154 -10 172 7T190 50Z" />
<glyph unicode="/" glyph-name="slash" horiz-adv-x="357" d="M372 689Q372 690 372 691Q373 692 373 693Q373 700 367 702L306 725Q306 725 304 725Q303 726 303 726Q297 726 294 721L4 20Q4 20 4 19Q3 17 3 17Q3 10 9 8L68 -17Q69 -17 70 -17Q71 -18 72 -18Q79
-18 81 -12L372 689Z" />
<glyph unicode="0" glyph-name="zero" horiz-adv-x="547" d="M524 354Q524 421 513 484T475 601T401 687T283 720Q214 720 166 688T91 601T53 484T42 354Q42 287 53 224T91 108T166 21T283 -12Q352 -12 400 21T475 107T513 224T524 354ZM422 354Q422 307 418 262T399
173T356 101T283 73Q239 73 211 101T168 172T149 261T144 354Q144 401 149 447T168 536T210 608T283 636Q327 636 355 608T398 537T417 447T422 354Z" />
<glyph unicode="1" glyph-name="one" horiz-adv-x="531" d="M406 0Q415 0 415 10V67Q415 77 406 77H332V698Q332 708 319 708L151 659Q144 657 144 650V590Q144 581 156 581L237 604V77H162Q153 77 153 67V10Q153 0 162 0H406Z" />
<glyph unicode="2" glyph-name="two" horiz-adv-x="547" d="M489 135L442 142Q434 142 432 134Q421 86 373 86Q358 86 333 91Q325 92 319 93L317 94Q293 99 276 101T233 104Q208 104 172 93L307 228Q387 308 432 378T477 522Q477 619 419 669T265 720Q231 720
199 712T140 690T94 663T63 637Q60 635 60 631Q60 627 62 625L94 581Q97 577 101 577Q105 577 108 580Q130 600 168 617T249 635Q313 635 344 604T375 520Q375 472 346 417T244 286L31 67Q28 64 28 60V6Q28 -4 39 -4Q49 -2 55 -1Q98 6 128 9T194 12Q219 12 270
3Q274 2 283 1Q332 -8 359 -8Q418 -8 457 27T498 126L489 135Z" />
<glyph unicode="3" glyph-name="three" horiz-adv-x="545" d="M481 202Q481 262 451 308T365 374Q410 398 435 439T461 535Q461 622 401 671T248 720Q191 720 140 699T49 651Q45 648 45 644Q45 641 47 639L77 590Q80 585 85 585Q85 585 86 586Q88 586 88 586Q89
586 91 588Q93 589 93 589Q126 609 161 623T239 637Q300 637 331 607T362 527Q362 493 350 471T318 437T275 421T227 416H203Q193 416 193 406V338Q193 328 203 328H227Q256 328 283 322T332 300T367 261T380 202Q380 144 342 108T244 72Q183 72 145 85T56 128Q54
130 51 130Q42 130 42 120V45Q42 38 48 36Q95 12 141 0T244 -12Q289 -12 332 1T408 42T461 109T481 202Z" />
<glyph unicode="4" glyph-name="four" horiz-adv-x="547" d="M509 166Q519 166 519 176V234Q519 244 509 244H436V698Q436 708 426 708H312Q307 708 304 703L33 260V176Q33 166 42 166H344V74H286Q277 74 277 64V10Q277 0 286 0H497Q506 0 506 10V64Q506 74 497
74H436V166H509ZM117 244L344 619V244H117Z" />
<glyph unicode="5" glyph-name="five" horiz-adv-x="545" d="M489 227Q489 334 428 396T262 458Q235 458 215 456T173 448L182 621H451Q461 621 461 630V699Q461 708 451 708H110Q100 708 100 699L84 344Q84 335 93 335Q94 335 96 335Q97 336 98 336Q134 355 173
365T246 375Q312 375 350 338T388 227Q388 157 352 116T244 74Q195 74 158 86T75 127Q74 127 72 128Q71 128 70 128Q60 128 60 119V44Q60 37 65 35Q102 15 146 2T252 -12Q301 -12 344 5T420 54T471 130T489 227Z" />
<glyph unicode="6" glyph-name="six" horiz-adv-x="547" d="M528 227Q528 333 467 395T307 457Q263 457 224 440T154 385Q157 454 171 503T208 582T261 625T323 639Q360 639 386 631T437 612L439 611Q441 610 444 609T450 606Q451 606 452 606Q453 605 454 605Q461
605 462 611L486 665Q486 666 486 667Q487 669 487 669Q487 676 483 677Q457 693 415 706T322 720Q259 720 207 692T128 623Q92 572 73 511T54 356Q54 269 64 215T92 123Q152 -12 301 -12Q348 -12 389 5T462 54T510 130T528 227ZM428 221Q428 157 391 114T297 70Q240
70 204 111T167 221Q167 291 203 332T297 374Q355 374 391 333T428 221Z" />
<glyph unicode="7" glyph-name="seven" horiz-adv-x="546" d="M502 644V698Q502 708 492 708H64Q55 708 55 698V631Q55 621 64 621H399L130 14Q130 13 130 12Q129 10 129 9Q129 0 139 0H217Q224 0 226 6L502 644Z" />
<glyph unicode="8" glyph-name="eight" horiz-adv-x="546" d="M508 200Q508 261 477 309T393 379Q435 400 459 442T484 531Q484 573 469 608T426 668Q369 720 282 720Q196 720 139 668Q112 643 97 608T81 531Q81 484 105 442T172 379Q119 358 88 310T56 200Q56
152 73 113T122 45Q185 -12 282 -12Q380 -12 444 45T508 200ZM411 201Q411 145 374 106T282 67Q228 67 191 106T154 201Q154 257 191 296T282 335Q337 335 374 296T411 201ZM392 533Q392 485 361 453T282 421Q235 421 204 453T173 533Q173 583 204 614T282 645Q329
645 360 614T392 533Z" />
<glyph unicode="9" glyph-name="nine" horiz-adv-x="547" d="M510 360Q510 434 499 492T471 588Q409 720 262 720Q214 720 173 703T101 655T52 580T35 485Q35 384 95 323T254 261Q300 261 340 276T409 325Q404 196 357 134T235 72Q197 72 164 81T96 105Q95 105
94 106Q92 106 92 106Q83 106 83 96V27Q83 20 88 18Q127 2 162 -5T246 -12Q307 -12 359 14T441 85Q474 134 492 202T510 360ZM398 492Q398 422 362 384T265 345Q208 345 170 387T132 492Q132 557 167 598T265 639Q323 639 360 596T398 492Z" />
<glyph unicode=":" glyph-name="colon" horiz-adv-x="243" d="M190 56Q190 83 173 103T130 123Q106 123 88 103T70 56Q70 28 88 8T130 -12Q154 -12 172 8T190 56ZM190 401Q190 429 173 448T130 468Q105 468 88 449T70 401Q70 374 88 354T130 334Q154 334 172 354T190
401Z" />
<glyph unicode=";" glyph-name="semicolon" horiz-adv-x="254" d="M207 94L125 118Q124 118 124 118Q122 119 122 119Q114 119 113 110Q105 57 86 -1T47 -101Q47 -102 47 -103Q46 -104 46 -105Q46 -112 53 -114L102 -133Q110 -133 112 -130Q140 -94 169 -35T213
81L207 94ZM205 405Q205 432 186 452T142 472Q116 472 98 452T79 405Q79 377 98 357T142 337Q167 337 186 357T205 405Z" />
<glyph unicode="&lt;" glyph-name="less" horiz-adv-x="549" d="M532 41Q533 41 534 41Q535 40 536 40Q545 40 545 50V121Q545 128 539 130L144 301L539 473Q545 475 545 482V553Q545 562 537 562Q536 562 534 562Q533 561 532 561L29 341Q23 339 23 332V271Q23
264 29 262L532 41Z" />
<glyph unicode="=" glyph-name="equal" horiz-adv-x="549" d="M535 171Q545 171 545 181V247Q545 256 535 256H33Q23 256 23 247V181Q23 171 33 171H535ZM535 321Q545 321 545 330V396Q545 405 535 405H33Q23 405 23 396V330Q23 321 33 321H535Z" />
<glyph unicode="&gt;" glyph-name="greater" horiz-adv-x="549" d="M539 262Q545 264 545 271V332Q545 339 539 341L37 561Q36 561 34 562Q33 562 32 562Q23 562 23 553V482Q23 475 29 473L423 301L29 130Q23 128 23 121V50Q23 40 33 40L35 41Q36 41 37 41L539 262Z" />
<glyph unicode="?" glyph-name="question" horiz-adv-x="465" d="M433 551Q433 635 379 680T233 726Q167 726 118 699T35 635Q33 632 33 628Q33 624 35 621L72 579Q75 576 79 576Q83 576 86 579Q111 605 146 625T224 645Q280 645 308 619T336 545Q336 510 316
481T260 414L251 405Q212 363 199 333T186 249V203Q186 193 195 193H270Q279 193 279 203V243Q279 283 289 305T325 351Q380 406 406 448T433 551ZM299 56Q299 84 280 104T232 125Q205 125 186 105T166 56Q166 28 186 8T232 -12Q259 -12 279 8T299 56Z" />
<glyph unicode="@" glyph-name="at" horiz-adv-x="784" d="M756 419Q756 485 730 541T657 639T549 703T419 726Q342 726 274 697T155 615T75 488T46 328Q46 266 65 209T121 107Q168 49 240 16T408 -18Q459 -18 506 -8T590 19T656 51T707 85Q711 88 711 93Q711
96 709 98L681 139Q678 143 674 143Q671 143 668 141Q666 140 662 137Q607 102 549 79T407 55Q337 55 281 80T189 151Q129 226 129 332Q129 400 151 459T213 562T306 630T419 654Q468 654 514 637T597 589T655 513T676 414Q676 373 666 338T637 276T596 235T549
220Q535 220 535 232Q535 241 536 243L615 532Q615 544 605 544H542Q534 544 532 538L525 513Q495 563 422 563Q375 563 332 542T256 483T205 395T186 288Q186 220 226 180T329 140Q398 140 453 192Q458 166 479 153T530 140Q568 140 608 158T681 212T735 300T756
419ZM482 348Q466 288 431 251T346 214Q313 214 295 234T277 291Q277 330 288 366T320 431T367 476T420 492Q457 492 474 472T492 413Q492 384 482 348Z" />
<glyph unicode="A" glyph-name="A" horiz-adv-x="661" d="M651 0Q661 0 661 10V67Q661 77 651 77H600L387 701Q385 708 378 708H296Q289 708 287 701L59 77H10Q1 77 1 67V10Q1 0 10 0H119Q126 0 128 7L210 240H441L518 7Q520 0 528 0H651ZM331 579L413 324H239L331 579Z" />
<glyph unicode="B" glyph-name="B" horiz-adv-x="625" d="M591 201Q591 264 554 311T457 374Q505 396 531 436T557 530Q557 578 538 612T485 667T409 698T320 708H54Q44 708 44 698V641Q44 631 54 631H102V77H54Q44 77 44 67V10Q44 0 54 0H315Q369 0 417 10T505
42T567 104T591 201ZM481 204Q481 145 440 113T331 81H200V328H333Q398 328 439 298T481 204ZM452 519Q452 487 440 466T407 432T361 414T306 409H200V627H314Q378 627 415 601T452 519Z" />
<glyph unicode="C" glyph-name="C" horiz-adv-x="608" d="M582 672Q582 673 582 674Q583 675 583 676Q583 683 577 685Q531 704 485 715T381 726Q308 726 246 700T139 624T70 505T45 354Q45 271 69 202T137 84T243 9T379 -18Q440 -18 489 -6T575 26Q580 28 580
35V108Q580 118 571 118Q570 118 568 118Q567 117 566 117Q526 95 486 83T390 71Q338 71 295 91T219 150T170 241T152 354Q152 415 168 467T214 558T288 618T386 640Q432 640 469 631T545 606Q546 606 547 606Q548 605 549 605Q556 605 558 611L582 672Z" />
<glyph unicode="D" glyph-name="D" horiz-adv-x="673" d="M641 354Q641 430 618 494T549 607T433 681T271 708H56Q46 708 46 698V641Q46 631 56 631H104V77H56Q46 77 46 67V10Q46 0 56 0H271Q363 0 433 26T549 101T618 213T641 354ZM535 354Q535 295 517 245T466
158T389 101T294 81H203V627H282Q337 627 384 607T464 551T516 464T535 354Z" />
<glyph unicode="E" glyph-name="E" horiz-adv-x="546" d="M535 0Q544 0 544 10L545 71Q545 81 536 81H202V330H475Q485 330 485 339V402Q485 411 475 411H202V627H502Q511 627 511 637V698Q511 708 502 708H56Q46 708 46 698V641Q46 631 56 631H104V77H56Q46 77
46 67V10Q46 0 56 0H535Z" />
<glyph unicode="F" glyph-name="F" horiz-adv-x="509" d="M501 627Q511 627 511 637V698Q511 708 501 708H49Q39 708 39 698V641Q39 631 49 631H97V77H49Q39 77 39 67V10Q39 0 49 0H252Q262 0 262 10V67Q262 77 252 77H194V336H435Q445 336 445 345V407Q445 417
435 417H194V627H501Z" />
<glyph unicode="G" glyph-name="G" horiz-adv-x="650" d="M612 46V367Q612 377 603 377H461Q451 377 451 367V309Q451 299 461 299H515V89Q484 79 456 75T396 70Q343 70 299 91T223 150T174 240T157 354Q157 415 173 467T219 558T292 618T388 640Q440 640 477
629T549 599Q550 599 551 598Q553 598 553 598Q561 598 563 604L589 665Q589 666 589 667Q590 668 590 669Q590 676 585 678Q546 700 496 713T379 726Q307 726 247 700T143 624T75 505T51 354Q51 271 74 203T142 85T247 9T384 -18Q504 -18 607 37L612 46Z" />
<glyph unicode="H" glyph-name="H" horiz-adv-x="726" d="M680 0Q690 0 690 10V67Q690 77 680 77H631V631H680Q690 631 690 641V698Q690 708 680 708H542Q532 708 532 698V409H195V698Q195 708 185 708H47Q38 708 38 698V641Q38 631 47 631H96V77H47Q38 77 38
67V10Q38 0 47 0H185Q195 0 195 10V328H532V10Q532 0 542 0H680Z" />
<glyph unicode="I" glyph-name="I" horiz-adv-x="273" d="M232 0Q241 0 241 10V67Q241 77 232 77H185V631H232Q241 631 241 641V698Q241 708 232 708H46Q37 708 37 698V641Q37 631 46 631H92V77H46Q37 77 37 67V10Q37 0 46 0H232Z" />
<glyph unicode="J" glyph-name="J" horiz-adv-x="350" d="M317 632Q327 632 327 641V699Q327 708 317 708H121Q112 708 112 699V641Q112 632 121 632H174V158Q174 113 159 90T105 66Q60 66 14 89Q13 89 12 89Q10 90 10 90Q1 90 1 80V14Q1 8 6 5Q33 -7 59 -12T122
-18Q192 -18 230 24T269 138V632H317Z" />
<glyph unicode="K" glyph-name="K" horiz-adv-x="662" d="M653 0Q662 0 662 10V67Q662 77 653 77H590L365 450L532 631H620Q630 631 630 641V698Q630 708 620 708H491Q487 708 484 705L200 393V698Q200 708 191 708H53Q43 708 43 698V641Q43 631 53 631H102V77H53Q43
77 43 67V10Q43 0 53 0H191Q200 0 200 10V270L295 374L515 5Q518 0 524 0H653Z" />
<glyph unicode="L" glyph-name="L" horiz-adv-x="542" d="M533 0Q542 0 542 10V71Q542 81 533 81H200V631H258Q267 631 267 641V698Q267 708 258 708H54Q44 708 44 698V641Q44 631 54 631H102V77H54Q44 77 44 67V10Q44 0 54 0H533Z" />
<glyph unicode="M" glyph-name="M" horiz-adv-x="919" d="M875 0Q885 0 885 10V67Q885 77 875 77H826V631H875Q885 631 885 641V698Q885 708 875 708H691Q685 708 683 702L463 168L239 702Q237 708 230 708H50Q40 708 40 698V641Q40 631 50 631H99V77H50Q40 77
40 67V10Q40 0 50 0H179Q188 0 188 10V576L427 6Q429 0 436 0H483Q490 0 492 6L728 575V10Q728 0 737 0H875Z" />
<glyph unicode="N" glyph-name="N" horiz-adv-x="764" d="M732 631Q742 631 742 641V698Q742 708 732 708H600Q590 708 590 698V146L221 704Q219 708 213 708H56Q47 708 47 698V641Q47 631 56 631H105V77H56Q47 77 47 67V10Q47 0 56 0H189Q198 0 198 10V563L568
4Q570 0 575 0H674Q683 0 683 10V631H732Z" />
<glyph unicode="O" glyph-name="O" horiz-adv-x="754" d="M714 354Q714 435 693 503T629 621T523 698T379 726Q299 726 236 699T130 622T66 504T44 354Q44 273 65 205T130 87T236 10T379 -18Q460 -18 523 9T628 87T692 205T714 354ZM607 354Q607 295 594 243T553
151T481 89T379 66Q321 66 278 88T207 151T166 243T152 354Q152 414 165 466T206 558T277 620T379 643Q438 643 481 621T552 558T593 466T607 354Z" />
<glyph unicode="P" glyph-name="P" horiz-adv-x="567" d="M549 499Q549 597 487 652T315 708H51Q41 708 41 698V641Q41 631 51 631H99V77H51Q41 77 41 67V10Q41 0 51 0H252Q262 0 262 10V67Q262 77 252 77H196V294H315Q426 294 487 347T549 499ZM448 499Q448 438
415 407T319 375H196V627H319Q381 627 414 594T448 499Z" />
<glyph unicode="Q" glyph-name="Q" horiz-adv-x="755" d="M757 -69L724 -42Q722 -40 719 -40Q713 -40 710 -44Q681 -82 641 -82Q626 -82 608 -76L477 -28Q463 -23 441 -16L434 -14Q573 1 648 101T723 356Q723 437 702 505T637 624T531 702T387 730Q306 730 243
703T138 625T74 506T52 356Q52 208 121 109T319 -11Q288 -21 264 -44T224 -96Q224 -97 224 -98Q223 -99 223 -100Q223 -105 228 -109L262 -131Q264 -133 267 -133Q271 -133 274 -129Q294 -105 312 -94T359 -83Q376 -83 400 -90L409 -93Q430 -99 446 -106Q448 -107
453 -109Q460 -112 465 -113L464 -112L574 -155Q599 -164 624 -164Q661 -164 696 -145T759 -82L757 -69ZM614 355Q614 295 601 243T560 151T489 89T387 66Q329 66 286 88T215 151T174 243T160 355Q160 415 173 467T214 560T285 623T387 646Q445 646 489 623T560
560T601 468T614 355Z" />
<glyph unicode="R" glyph-name="R" horiz-adv-x="604" d="M594 0Q603 0 603 10V67Q603 77 594 77H552Q525 77 511 109Q503 124 495 159Q493 168 491 177Q478 230 462 266T410 327Q436 335 455 346T491 374Q543 426 543 509Q543 602 482 655T311 708H47Q37 708
37 698V641Q37 631 47 631H95V77H47Q37 77 37 67V10Q37 0 47 0H242Q252 0 252 10V67Q252 77 242 77H193V313H301Q344 289 363 247T398 136Q406 102 412 80T429 40Q452 0 496 0H594ZM438 509Q438 395 317 395H193V627H317Q376 627 407 596T438 509Z" />
<glyph unicode="S" glyph-name="S" horiz-adv-x="499" d="M479 189Q479 238 464 273T422 334T357 376T268 412Q188 439 157 466T126 539Q126 587 164 615T265 644Q313 644 348 636T419 613Q420 613 421 613Q422 612 423 612Q430 612 432 617L454 677Q454 678 454
679Q455 680 455 681Q455 688 449 689Q421 702 367 714T266 726Q157 726 94 674T30 529Q30 482 47 447T94 389T158 351T242 318Q309 296 343 267T378 186Q378 128 339 99T226 69Q175 69 133 81T47 112Q46 112 45 113Q43 113 43 113Q34 113 34 103V30Q34 23 39 21Q80
4 128 -7T231 -18Q346 -18 412 36T479 189Z" />
<glyph unicode="T" glyph-name="T" horiz-adv-x="536" d="M527 627Q537 627 537 637V698Q537 708 527 708H12Q3 708 3 698V637Q3 627 12 627H220V77H172Q163 77 163 67V10Q163 0 172 0H367Q377 0 377 10V67Q377 77 367 77H319V627H527Z" />
<glyph unicode="U" glyph-name="U" horiz-adv-x="717" d="M676 632Q686 632 686 641V699Q686 709 676 709H542Q532 709 532 699V253Q532 154 492 110T364 66Q274 66 234 110T193 253V699Q193 709 183 709H42Q33 709 33 699V641Q33 632 42 632H91V237Q91 114 157
48T363 -18Q499 -18 563 48T628 237V632H676Z" />
<glyph unicode="V" glyph-name="V" horiz-adv-x="662" d="M651 631Q661 631 661 641V698Q661 708 651 708H538Q532 708 530 701L336 141L144 701Q142 708 136 708H10Q1 708 1 698V641Q1 631 10 631H62L280 7Q282 0 289 0H371Q378 0 380 7L599 631H651Z" />
<glyph unicode="W" glyph-name="W" horiz-adv-x="999" d="M988 631Q998 631 998 641V698Q998 708 988 708H870Q863 708 861 701L706 154L553 701Q551 708 543 708H455Q447 708 445 701L290 152L137 701Q135 708 127 708H11Q1 708 1 698V641Q1 631 11 631H54L229
7Q231 0 239 0H328Q336 0 338 7L492 541L646 7Q648 0 656 0H745Q753 0 755 7L941 631H988Z" />
<glyph unicode="X" glyph-name="X" horiz-adv-x="644" d="M633 0Q643 0 643 10V67Q643 77 633 77H572L374 374L545 631H612Q621 631 621 641V698Q621 708 612 708H501Q495 708 493 704L324 450L154 704Q152 708 146 708H26Q16 708 16 698V641Q16 631 26 631H86L266
362L76 77H10Q1 77 1 67V10Q1 0 10 0H120Q126 0 128 4L316 286L504 4Q506 0 512 0H633Z" />
<glyph unicode="Y" glyph-name="Y" horiz-adv-x="585" d="M575 631Q585 631 585 641V698Q585 708 575 708H482Q476 708 473 703L303 406L118 703Q116 708 110 708H9Q0 708 0 698V641Q0 631 9 631H52L251 313V77H203Q193 77 193 67V10Q193 0 203 0H398Q408 0 408
10V67Q408 77 398 77H350V316L530 631H575Z" />
<glyph unicode="Z" glyph-name="Z" horiz-adv-x="541" d="M531 0Q541 0 541 10V73Q541 83 531 83H139L536 627V698Q536 708 526 708H40Q31 708 31 698V635Q31 625 40 625H420L25 84V10Q25 0 34 0H531Z" />
<glyph unicode="[" glyph-name="bracketleft" horiz-adv-x="236" d="M217 -140Q226 -140 226 -130V-69Q226 -60 217 -60H143V631H217Q226 631 226 641V702Q226 711 217 711H70Q61 711 61 702V-130Q61 -140 70 -140H217Z" />
<glyph unicode="\" glyph-name="backslash" horiz-adv-x="357" d="M367 8Q373 10 373 17Q373 17 372 19Q372 20 372 20L82 721Q80 726 73 726Q72 726 71 725Q70 725 69 725L9 702Q3 700 3 693Q3 692 4 691Q4 690 4 689L295 -12Q297 -18 304 -18Q304 -18 306 -17Q307
-17 307 -17L367 8Z" />
<glyph unicode="]" glyph-name="bracketright" horiz-adv-x="236" d="M185 -140Q194 -140 194 -130V702Q194 711 185 711H37Q29 711 29 702V641Q29 631 37 631H111V-60H37Q29 -60 29 -69V-130Q29 -140 37 -140H185Z" />
<glyph unicode="^" glyph-name="asciicircum" horiz-adv-x="646" d="M580 280Q586 282 586 290Q586 291 586 292Q585 293 585 294L370 692Q368 697 362 697H304Q297 697 295 692L83 294Q83 293 82 292Q82 291 82 290Q82 282 88 280L146 254Q147 254 149 254Q151
253 151 253Q157 253 159 257L331 580L505 256Q507 251 513 251Q514 251 515 252Q517 252 517 252L580 280Z" />
<glyph unicode="_" glyph-name="underscore" horiz-adv-x="500" d="M490 -121Q500 -121 500 -113V-57Q500 -49 490 -49H10Q0 -49 0 -57V-113Q0 -121 10 -121H490Z" />
<glyph unicode="`" glyph-name="grave" horiz-adv-x="480" d="M353 489Q362 489 362 498Q362 501 360 504L230 677Q228 681 222 681H147Q137 681 137 673Q137 670 140 667L280 493Q282 489 287 489H353Z" />
<glyph unicode="a" glyph-name="a" horiz-adv-x="518" d="M516 50L495 85Q492 89 487 89Q484 89 481 87L476 84Q457 74 448 74Q440 74 437 79T433 101V300Q433 387 386 433T242 480Q158 480 94 445Q89 443 89 436Q89 435 90 434Q90 433 90 432L110 383Q112 378
119 378Q119 378 121 378Q122 379 123 379Q174 404 230 404Q339 404 339 311V281Q317 299 284 311T212 323Q128 323 79 277T29 156Q29 77 75 33T206 -12Q253 -12 289 4T345 45Q359 0 418 0Q442 0 467 10T513 37L516 50ZM340 158Q340 115 307 89T225 62Q176 62 150
87T124 156Q124 198 149 224T222 250Q278 250 309 224T340 158Z" />
<glyph unicode="b" glyph-name="b" horiz-adv-x="570" d="M541 238Q541 350 484 418T318 487Q275 487 236 471T169 425L168 682Q168 719 148 743T87 768Q65 768 40 758T-8 731Q-12 728 -12 723Q-12 722 -12 721Q-11 719 -11 719L10 684Q13 680 18 680Q21 680 24
682Q42 694 57 694Q74 694 74 666V10Q74 0 84 0H159Q169 0 169 10V57Q193 26 233 7T325 -12Q425 -12 483 58T541 238ZM441 238Q441 164 410 117T315 69Q248 69 209 118T169 238Q169 309 208 358T315 408Q379 408 410 360T441 238Z" />
<glyph unicode="c" glyph-name="c" horiz-adv-x="437" d="M423 434Q423 445 418 447L415 448Q381 462 348 471T274 480Q222 480 178 462T102 411T53 332T36 234Q36 124 99 56T273 -12Q312 -12 350 -2T416 20Q422 22 422 29V92Q422 102 412 102Q411 102 410 102Q408
101 407 101Q372 82 341 74T278 66Q210 66 172 112T133 234Q133 305 169 352T275 400Q310 400 337 393T388 376Q389 376 390 376Q391 375 392 375Q399 375 401 381L423 434Z" />
<glyph unicode="d" glyph-name="d" horiz-adv-x="583" d="M593 51L572 86Q569 91 563 91Q560 91 558 89Q549 83 541 79T525 75Q516 75 513 80T509 102V682Q509 719 489 743T428 768Q406 768 381 758T333 731Q329 728 329 723Q329 722 329 721Q329 721 330 719L350
684Q353 680 359 680Q362 680 365 682Q372 687 381 690T397 694Q415 694 415 666V425Q361 487 261 487Q164 487 105 416Q78 383 63 337T48 238Q48 126 105 57T267 -12Q310 -12 351 5T419 53Q425 27 443 14T495 0Q519 0 543 10T590 38L593 51ZM415 238Q415 167 377
118T273 68Q211 68 180 116T149 238Q149 312 181 360T275 408Q339 408 377 359T415 238Z" />
<glyph unicode="e" glyph-name="e" horiz-adv-x="500" d="M466 198Q476 198 476 208V240Q476 356 423 418T270 480Q168 480 108 413T48 234Q48 127 108 58T279 -12Q335 -12 370 -4T436 20Q441 22 441 29V91Q441 101 432 101Q432 101 430 101Q428 100 427 100Q399
85 365 76T289 66Q255 66 230 77T186 109Q154 144 147 198H466ZM267 406Q320 406 347 372T377 272H148Q157 337 186 371T267 406Z" />
<glyph unicode="f" glyph-name="f" horiz-adv-x="296" d="M341 727Q341 738 337 740Q312 755 291 761T242 768Q202 768 173 754T126 716T100 663T92 603V476H17Q8 476 8 466V412Q8 403 17 403H92V10Q92 0 101 0H175Q184 0 184 10V403H282Q292 403 292 412V466Q292
476 282 476H184V576Q184 629 197 658T249 688Q263 688 279 683T308 672Q309 672 310 671Q312 671 313 671Q319 671 321 676L341 727Z" />
<glyph unicode="g" glyph-name="g" horiz-adv-x="567" d="M512 25V465Q512 475 502 475H428Q418 475 418 465V424Q364 486 264 486Q164 486 106 417T48 237Q48 125 105 57T269 -12Q311 -12 351 4T418 49V19Q418 -16 412 -46T389 -100T342 -139T268 -154Q223 -154
188 -146T122 -123Q121 -123 120 -123Q118 -122 117 -122Q108 -122 108 -131V-196Q108 -202 114 -204Q148 -218 186 -226T273 -234Q392 -234 452 -165T512 25ZM418 237Q418 167 379 118T273 68Q210 68 179 115T148 237Q148 311 179 359T273 407Q339 407 378 358T418
237Z" />
<glyph unicode="h" glyph-name="h" horiz-adv-x="548" d="M562 45L541 80Q538 85 533 85Q530 85 527 83Q518 77 510 73T494 69Q486 69 482 73T478 92V315Q478 396 435 441T301 487Q260 487 226 471T168 428V681Q168 719 149 743T88 768Q66 768 40 758T-8 731Q-12
728 -12 723Q-12 722 -12 720Q-11 719 -11 718L10 684Q13 679 18 679Q22 679 24 681Q41 694 57 694Q74 694 74 666V10Q74 0 84 0H158Q168 0 168 10V232Q168 307 199 356T295 406Q340 406 361 378T383 302V295L382 94V90Q382 43 401 19T464 -6Q488 -6 513 4T560
32L562 45Z" />
<glyph unicode="i" glyph-name="i" horiz-adv-x="248" d="M261 45L241 80Q238 85 233 85Q230 85 227 83Q220 78 212 74T196 69Q188 69 184 74T180 96L181 388V391Q181 427 162 451T103 475Q82 475 58 465T11 438Q7 435 7 430Q7 428 8 427Q8 427 8 425L28 391Q31
386 36 386Q40 386 42 388Q57 401 73 401Q90 401 90 373L89 93V89Q89 42 107 18T167 -6Q190 -6 214 4T259 32L261 45ZM182 643Q182 668 165 686T122 705Q97 705 80 687T63 643Q63 616 80 599T122 581Q148 581 165 598T182 643Z" />
<glyph unicode="j" glyph-name="j" horiz-adv-x="232" d="M179 -70V391Q179 429 160 453T102 478Q82 478 58 468T11 441Q7 438 7 433Q7 431 8 430Q8 430 8 428L28 394Q30 389 36 389Q39 389 41 391Q56 403 73 403Q89 403 89 375V-62Q89 -112 78 -135T26 -159Q6
-159 -8 -154T-38 -140Q-39 -140 -40 -139Q-42 -139 -43 -139Q-52 -139 -52 -149V-206Q-52 -212 -46 -214Q-44 -215 -43 -215Q-42 -215 -41 -216Q-21 -225 -3 -230T40 -235Q114 -235 146 -193T179 -70ZM178 647Q178 674 160 693T116 713Q90 713 72 694T54 647Q54
619 71 601T116 582Q143 582 160 600T178 647Z" />
<glyph unicode="k" glyph-name="k" horiz-adv-x="501" d="M537 58L514 91Q512 95 507 95Q504 95 501 93Q491 86 483 81T468 76Q459 76 454 80T441 98L328 311L479 412Q482 415 482 419Q482 420 482 422Q481 424 481 425L448 477Q445 481 439 481Q439 481 437 481Q434
480 434 480L169 293V683Q169 720 149 744T88 768Q66 768 41 758T-8 731Q-12 728 -12 723Q-12 722 -12 720Q-11 719 -11 718L10 684Q13 679 18 679Q22 679 24 681Q41 694 57 694Q74 694 74 666V10Q74 0 84 0H159Q169 0 169 10V202L249 256L350 55Q379 0 431 0Q466
0 491 13T537 44V58Z" />
<glyph unicode="l" glyph-name="l" horiz-adv-x="234" d="M244 45L224 80Q221 85 215 85Q212 85 210 83L209 82Q200 76 192 73T178 69Q170 69 166 74T162 97V681Q162 719 143 743T84 768Q63 768 39 758T-7 731Q-11 728 -11 723Q-11 722 -11 720Q-10 719 -10 718L9
684Q12 679 18 679Q21 679 23 681Q40 694 55 694Q71 694 71 666V94Q71 44 88 19T149 -6Q172 -6 196 4T241 32L244 45Z" />
<glyph unicode="m" glyph-name="m" horiz-adv-x="852" d="M867 44L845 79Q842 84 837 84Q834 84 831 82Q822 76 813 72T797 68Q789 68 786 73T782 95V311Q782 392 741 436T610 480Q561 480 523 459T464 400Q445 439 409 459T315 480Q270 480 235 462T180 417Q174
441 156 455T107 469Q85 469 60 459T12 432Q8 429 8 424Q8 423 8 422Q8 422 9 420L29 386Q32 381 38 381Q42 381 44 383Q61 396 77 396Q95 396 95 368V10Q95 0 105 0H180Q190 0 190 10V229Q190 265 196 295T215 349T252 386T308 400Q352 400 370 369T388 279V10Q388
0 398 0H476Q486 0 486 10V229Q486 265 492 295T511 349T547 386T603 400Q647 400 665 372T684 293V88Q684 42 703 18T767 -6Q791 -6 816 4T864 32L867 44Z" />
<glyph unicode="n" glyph-name="n" horiz-adv-x="567" d="M583 44L562 79Q559 84 553 84Q550 84 547 82H546Q536 75 529 72T514 68Q506 68 503 72T499 90V95L498 310Q498 390 454 435T321 480Q275 480 239 461T180 412Q173 438 156 453T105 469Q84 469 60 459T12
432Q8 429 8 424Q8 423 8 422Q8 422 9 420L29 386Q32 381 38 381Q41 381 43 383Q60 396 76 396Q94 396 94 368V10Q94 0 103 0H178Q187 0 187 10V229Q187 303 218 351T314 400Q359 400 380 371T402 291V88Q402 42 421 18T484 -6Q508 -6 533 4T580 32L583 44Z" />
<glyph unicode="o" glyph-name="o" horiz-adv-x="519" d="M490 234Q490 346 429 413T260 480Q153 480 92 413T30 234Q30 123 91 56T260 -12Q367 -12 428 55T490 234ZM392 234Q392 162 358 113T260 64Q196 64 162 113T128 234Q128 307 162 356T260 405Q324 405
358 356T392 234Z" />
<glyph unicode="p" glyph-name="p" horiz-adv-x="584" d="M555 237Q555 349 499 417T336 486Q292 486 251 469T182 418Q176 444 158 459T105 475Q84 475 60 465T12 438Q8 435 8 430Q8 429 8 427Q9 426 9 425L29 391Q32 386 38 386Q41 386 43 388Q60 401 76 401Q94
401 94 372V-213Q94 -223 103 -223H178Q188 -223 188 -213V50Q241 -12 344 -12Q392 -12 431 6T498 59T540 138T555 237ZM454 237Q454 164 422 116T328 68Q264 68 226 117T188 237Q188 308 227 357T330 407Q392 407 423 359T454 237Z" />
<glyph unicode="q" glyph-name="q" horiz-adv-x="567" d="M502 -223Q512 -223 512 -213V465Q512 475 502 475H428Q418 475 418 465V424Q366 486 262 486Q163 486 106 416T48 237Q48 125 105 57T269 -12Q310 -12 350 4T418 49V-213Q418 -223 428 -223H502ZM418
237Q418 167 379 118T273 68Q210 68 179 115T148 237Q148 311 179 359T273 407Q339 407 378 358T418 237Z" />
<glyph unicode="r" glyph-name="r" horiz-adv-x="376" d="M389 439Q389 440 389 441Q390 442 390 442Q390 448 385 450Q370 461 350 467T300 474Q263 474 230 454T176 396Q167 468 104 468Q82 468 58 459T11 432Q8 429 8 424Q8 423 8 421Q9 420 9 419L29 386Q31
381 37 381Q41 381 43 383Q57 395 75 395Q92 395 92 367V10Q92 0 102 0H175Q184 0 184 10V193Q184 237 195 279T227 352Q254 392 296 392Q315 392 329 387T353 374Q355 372 359 372Q365 372 367 379L389 439Z" />
<glyph unicode="s" glyph-name="s" horiz-adv-x="390" d="M378 139Q378 202 341 233T228 282Q176 294 150 309T123 347Q123 375 145 390T211 406Q244 406 270 399T320 381Q322 380 323 380Q324 379 324 379Q327 377 331 377Q337 377 340 382L361 430Q361 430 362
432Q362 433 362 434Q362 440 358 442Q321 462 283 471T211 480Q135 480 84 443T33 338Q33 305 45 283T79 245T126 221T194 200Q244 187 265 173T286 130Q286 98 259 82T194 65Q150 65 114 78T44 112Q41 114 38 114Q29 114 29 105V37Q29 31 35 29Q70 12 108 0T201
-12Q235 -12 266 -4T322 23T363 71T378 139Z" />
<glyph unicode="t" glyph-name="t" horiz-adv-x="308" d="M323 28V83Q323 93 314 93Q311 93 308 91Q296 83 274 77T232 70Q202 70 193 84T183 137V400H294Q304 400 304 410V463Q304 472 294 472H183V592Q183 601 174 601H101Q91 601 91 592V472H17Q8 472 8 463V410Q8
400 17 400H91V126Q91 56 122 25T218 -7Q244 -7 272 1T318 19L323 28Z" />
<glyph unicode="u" glyph-name="u" horiz-adv-x="566" d="M577 50L556 84Q553 89 547 89Q544 89 541 87L536 84Q517 74 508 74Q500 74 497 79T493 101V459Q493 468 483 468H409Q399 468 399 459V240Q399 166 368 118T272 69Q227 69 206 98T185 178V386Q185 422
165 445T103 468Q81 468 56 458T8 432Q4 429 4 424Q4 423 4 422Q4 422 5 420L25 386Q28 381 34 381Q37 381 39 383Q56 396 72 396Q89 396 89 372V158Q89 78 132 33T266 -12Q311 -12 347 6T406 56Q412 30 430 15T478 0Q502 0 527 10T574 37L577 50Z" />
<glyph unicode="v" glyph-name="v" horiz-adv-x="502" d="M502 437V438Q503 439 503 440Q503 446 497 449L434 472Q433 472 432 472Q431 473 430 473Q424 473 422 467L275 111L184 365Q184 366 182 371L181 374Q165 421 147 444T90 468Q44 468 -5 431Q-9 428 -9
423Q-9 421 -8 420Q-8 418 -8 418L12 385Q14 380 20 380Q21 380 23 380Q24 381 25 381Q45 392 58 392Q72 392 88 353L219 6Q221 0 228 0H311Q318 0 320 6L502 437Z" />
<glyph unicode="w" glyph-name="w" horiz-adv-x="765" d="M765 438Q765 438 765 439Q766 440 766 441Q766 447 759 450L696 472Q695 472 694 472Q693 473 693 473Q687 473 684 466L553 117L476 364Q459 418 440 443T379 468Q333 468 284 431Q280 428 280 423Q280
420 282 418L303 386Q306 381 311 381Q314 381 317 383Q332 394 348 394Q361 394 368 387T385 356V357L387 350L268 106L187 365Q171 417 152 442T91 468Q44 468 -5 431Q-9 428 -9 423Q-9 420 -7 418L15 386Q18 381 23 381Q25 381 28 383Q40 392 58 392Q79 392
92 354L204 7Q206 0 213 0H297Q304 0 306 6L420 238L495 7Q497 0 505 0H589Q596 0 598 6L765 438Z" />
<glyph unicode="x" glyph-name="x" horiz-adv-x="483" d="M493 63L470 95Q467 100 463 100Q459 100 456 97Q440 82 421 82Q405 82 384 114L301 241L462 420Q465 423 465 427Q465 431 462 433L421 477Q418 479 414 479Q410 479 407 477L257 310L187 419L186 421Q170
444 155 456T112 469Q88 469 63 455T15 418Q13 416 13 411Q13 410 13 408Q14 406 14 405L37 374Q40 370 45 370Q48 370 51 372Q69 387 86 387Q95 387 103 381T122 357L196 242L21 48Q18 45 18 41Q18 37 21 35L62 -9Q65 -11 69 -11Q73 -11 76 -9L240 173L319 49Q333
26 349 13T395 0Q419 0 444 14T492 51L493 63Z" />
<glyph unicode="y" glyph-name="y" horiz-adv-x="544" d="M490 27V465Q490 475 480 475H406Q397 475 397 465V236Q395 164 364 117T271 70Q226 70 205 99T184 180V391Q184 427 164 451T103 475Q81 475 56 465T8 438Q4 435 4 430Q4 429 4 427Q5 426 5 425L25 391Q28
386 33 386Q37 386 39 388Q56 401 72 401Q88 401 88 376V160Q88 79 131 34T264 -12Q307 -12 342 6T401 53V18Q401 -22 395 -53T373 -106T329 -141T257 -154Q215 -154 181 -146T119 -124Q118 -124 116 -123Q115 -123 114 -123Q106 -123 106 -132V-196Q106 -203 111
-205Q142 -218 179 -225T262 -233Q378 -233 434 -167T490 27Z" />
<glyph unicode="z" glyph-name="z" horiz-adv-x="433" d="M429 131L386 135Q377 135 375 128Q365 80 323 80Q304 80 279 87Q261 92 245 95T203 98Q182 98 154 90L422 408V459Q422 468 412 468H53Q44 468 44 459V398Q44 389 53 389H294L15 58V6Q15 -4 27 -4Q53
3 89 7T163 12Q188 12 235 2L242 1Q282 -8 308 -8Q364 -8 400 25T437 121L429 131Z" />
<glyph unicode="{" glyph-name="braceleft" horiz-adv-x="294" d="M278 -140Q287 -140 287 -130V-69Q287 -60 278 -60H228Q207 -60 199 -42T191 6V158Q191 209 173 241T128 286Q154 302 172 332T191 411V566Q191 596 199 613T228 631H278Q287 631 287 641V702Q287
711 278 711H213Q173 711 140 675T106 579V425Q106 381 85 353T35 324Q26 324 26 315V256Q26 246 35 246Q63 246 84 219T106 145V-8Q106 -68 139 -104T213 -140H278Z" />
<glyph unicode="|" glyph-name="bar" horiz-adv-x="176" d="M122 -18Q130 -18 130 -8V717Q130 726 122 726H70Q62 726 62 717V-8Q62 -18 70 -18H122Z" />
<glyph unicode="}" glyph-name="braceright" horiz-adv-x="294" d="M287 256V315Q287 324 278 324Q250 324 229 352T207 425V579Q207 639 174 675T100 711H35Q26 711 26 702V641Q26 631 35 631H85Q106 631 114 614T122 566V411Q122 363 140 333T185 286Q159 273
141 241T122 158V6Q122 -24 114 -42T85 -60H35Q26 -60 26 -69V-130Q26 -140 35 -140H100Q142 -140 174 -104T207 -8V145Q207 191 228 218T278 246L287 256Z" />
<glyph unicode="~" glyph-name="asciitilde" horiz-adv-x="645" d="M566 307L525 337Q525 337 523 338Q521 338 520 338Q513 338 510 333Q510 332 509 330Q507 329 507 328L508 329Q493 308 479 297T439 286Q418 286 399 292T353 309Q352 309 345 313Q337 317
333 318Q328 320 325 321Q295 333 275 339T231 345Q188 345 160 324T98 258Q96 256 96 253Q96 248 100 246L141 216Q144 214 147 214Q153 214 155 219Q156 220 157 222Q159 223 159 224L158 223Q173 244 187 255T224 266Q244 266 262 261T308 243L310 242Q314 241
322 237Q329 233 330 233Q362 220 384 213T432 206Q478 206 507 228T568 295L566 307Z" />
</font>
</defs>
</svg>
