<?xml version="1.0" standalone="no"?> <!DOCTYPE svg PUBLIC "-//W3C//DTD SVG 1.0//EN" "http://www.w3.org/TR/2001/REC-SVG-20010904/DTD/svg10.dtd" > <svg xmlns="http://www.w3.org/2000/svg" width="100%" height="100%">
<defs >
<font id="museumbible" horiz-adv-x="456" ><font-face
    font-family="MuseumBible"
    units-per-em="1000"
    panose-1="2 0 5 3 0 0 0 0 0 0"
    ascent="668"
    descent="-257"
    alphabetic="0" />
<missing-glyph horiz-adv-x="432" d="M33 0V666H366V0H33ZM66 33H333V633H66V33Z" />
<glyph unicode=" " glyph-name="space" horiz-adv-x="250" />
<glyph unicode="(" glyph-name="parenleft" horiz-adv-x="331" d="M30 208Q35 317 83 415Q137 527 233 595Q251 608 270 619Q277 623 281 624Q286 625 291 624T301 619T308 610Q310 606 310 601T308 592T302 585Q300 583 294 580Q277 570 260 558Q171 494 123
400Q80 313 75 207Q71 88 116 -11Q154 -94 225 -156Q258 -185 296 -207Q303 -211 306 -214Q310 -218 313 -223Q316 -228 316 -234T314 -245Q312 -250 308 -253T298 -257Q293 -257 287 -256Q284 -254 278 -251Q239 -228 204 -198Q120 -125 74 -23Q25 87 30 208Z"
/>
<glyph unicode=")" glyph-name="parenright" horiz-adv-x="328" d="M297 204Q303 59 243 -55Q195 -147 105 -216Q80 -235 52 -252Q47 -255 43 -257Q37 -258 32 -257T23 -252T16 -243Q13 -233 17 -224Q19 -220 23 -217Q26 -214 31 -211Q54 -199 75 -184Q160 -125
205 -39Q262 67 255 203Q250 312 205 401Q161 491 81 548Q57 565 31 578Q25 581 22 583Q18 587 16 592T15 602Q16 608 19 612Q26 622 37 623Q42 623 47 621Q51 620 57 617Q84 600 109 581Q209 503 256 392Q293 306 297 204Z" />
<glyph unicode="," glyph-name="comma" horiz-adv-x="180" d="M50 82Q60 94 67 107L72 116Q75 122 79 124Q82 126 86 126T93 124T104 113Q112 104 121 96Q129 89 138 83Q144 79 146 77Q151 73 152 68Q154 63 152 57Q151 53 147 46Q144 40 143 36T140 25Q137 8
131 -9Q121 -36 105 -59Q80 -94 43 -114Q39 -116 35 -117T27 -117T20 -113Q17 -111 15 -107Q12 -102 12 -97Q11 -92 12 -87T18 -79Q21 -76 27 -73Q37 -67 45 -61Q58 -51 64 -40Q71 -27 70 -13Q68 0 60 12Q54 21 45 27T35 34Q30 39 28 44Q26 50 28 56Q29 59 31 62L35
66Q43 74 50 82Z" />
<glyph unicode="-" glyph-name="hyphen" horiz-adv-x="297" d="M153 234H258H265Q268 233 270 231T274 226T275 219V183Q275 178 274 175Q273 171 269 168Q266 166 261 165H253Q201 165 150 166L47 168Q41 168 38 169Q33 169 29 172Q25 174 24 179Q23 182 23 188L24
217Q24 222 25 225Q26 229 29 232T37 236H45Q99 234 153 234Z" />
<glyph unicode="." glyph-name="period" horiz-adv-x="184" d="M124 90Q134 78 147 69Q151 66 152 65Q155 62 156 59Q159 53 158 46Q157 40 153 35Q150 32 143 28Q132 22 123 13Q116 6 110 -3Q106 -9 105 -10Q103 -13 100 -16Q93 -21 84 -20Q76 -19 71 -14Q69
-12 67 -9Q66 -7 64 -2Q60 9 52 19Q43 30 31 38Q28 40 27 41Q24 43 23 45Q20 49 20 55Q20 60 24 65Q26 68 31 73Q43 83 53 95Q60 103 67 112Q73 119 77 122Q83 126 90 126T102 122Q104 120 106 117Q107 116 109 112Q115 100 124 90Z" />
<glyph unicode="/" glyph-name="slash" horiz-adv-x="569" d="M387 606Q399 626 405 640T412 656Q421 671 438 667Q444 666 464 655Q492 638 480 618Q479 616 477 613T469 601T456 582Q412 513 291 303L102 -32Q99 -37 96 -39T91 -43T85 -45T79 -45T73 -44T68
-41T63 -38T59 -36Q26 -17 40 7L233 334L387 606Z" />
<glyph unicode="0" glyph-name="zero" horiz-adv-x="388" d="M200 389Q240 388 275 367Q308 346 330 311Q360 263 362 200Q365 130 333 77Q311 40 275 18Q238 -5 196 -6Q148 -7 108 18Q63 47 41 100Q21 149 26 206Q33 293 88 345Q136 391 200 389ZM192 332Q158
332 130 309Q105 289 91 256Q76 221 77 182Q79 121 117 82Q148 50 190 50Q217 50 240 63Q263 76 278 99Q307 141 304 200Q302 252 275 288Q260 309 239 320Q217 332 192 332Z" />
<glyph unicode="1" glyph-name="one" horiz-adv-x="388" d="M194 382Q238 382 283 384Q288 384 291 383Q294 382 297 379Q299 377 300 373Q301 369 301 365Q301 361 301 358Q300 354 298 351Q296 348 293 347Q290 346 286 345L272 343Q258 341 251 337Q241 332
236 322Q231 314 230 302Q229 295 229 280V100Q229 85 230 79Q231 66 236 58Q242 49 253 45Q260 42 274 42H279Q285 42 288 41Q292 40 295 38T300 30Q302 27 302 22Q302 17 300 13Q298 8 295 5T286 1Q283 1 277 1Q236 3 195 3Q153 3 112 0Q107 0 105 0Q101 1 98
3Q92 6 89 14Q87 19 87 25Q87 31 89 35Q92 40 97 42Q101 44 108 44H116Q129 44 136 47Q146 51 152 60Q156 68 157 79Q158 86 158 100L157 276Q157 294 157 297Q156 310 153 318Q148 329 139 335Q133 339 119 341L106 343Q101 344 99 345Q95 347 93 350Q91 352 89
356Q88 360 88 364Q88 368 88 372Q89 376 91 379Q93 382 97 383Q100 384 105 384Q149 382 194 382Z" />
<glyph unicode="2" glyph-name="two" horiz-adv-x="388" d="M183 390Q223 394 258 376Q294 358 311 322Q335 272 312 221Q301 199 282 179Q269 166 241 146L129 65L258 68Q271 68 277 69Q287 71 295 75Q303 79 309 87Q313 92 318 103L322 112Q323 115 324 116Q325
118 327 119Q330 122 335 123Q339 124 343 124Q348 123 351 121Q355 118 355 113Q355 111 355 109Q354 108 353 105Q345 88 339 70Q330 44 324 18Q323 14 322 12Q321 10 320 8T315 5Q313 4 309 4Q236 2 162 1Q106 0 50 -1Q46 -1 44 -1Q41 0 38 2Q33 5 31 12Q28
20 30 27Q32 30 34 33Q36 35 40 38Q68 57 96 81Q166 141 206 179Q233 205 242 227Q248 242 249 257Q249 272 242 286Q233 305 214 314Q196 323 174 323Q145 322 114 306Q101 299 89 290Q84 286 81 285Q76 283 72 283T63 286T56 293Q52 300 54 308Q54 311 56 315Q58
317 61 321Q72 333 84 344Q131 385 183 390Z" />
<glyph unicode="3" glyph-name="three" horiz-adv-x="388" d="M199 396Q246 397 281 367Q300 351 310 329Q321 306 320 282Q319 258 308 237Q296 216 277 201Q262 190 245 183Q263 178 279 168Q308 150 325 120Q341 90 342 56Q343 -9 292 -60Q240 -111 158 -122Q135
-125 112 -124Q84 -123 69 -113Q59 -107 54 -97Q48 -87 48 -76Q48 -66 54 -58T69 -45Q78 -42 89 -43Q96 -43 108 -47L128 -53Q170 -66 193 -64Q210 -63 225 -56Q240 -48 250 -35Q268 -12 270 26Q271 50 266 70Q259 93 243 107Q226 123 199 127Q182 130 149 129Q121
128 112 128Q107 128 103 129Q99 130 96 134Q94 137 93 141Q92 145 92 150Q92 154 93 157Q94 161 96 164T102 168Q104 169 109 170Q132 174 153 180Q195 193 217 214Q232 227 238 243Q246 261 243 279Q240 301 223 316Q207 330 184 332Q162 334 139 323Q125 316
114 306Q106 298 104 297Q98 293 93 291Q86 290 80 292Q73 294 69 299Q66 303 65 308T65 318Q67 326 76 335Q92 352 111 365Q155 395 199 396Z" />
<glyph unicode="4" glyph-name="four" horiz-adv-x="388" d="M126 330L234 503Q237 508 240 511Q243 515 247 517Q256 521 266 519Q271 518 275 516Q279 514 281 511T285 503Q286 500 286 494L281 187L355 185Q358 185 360 184Q363 184 365 182T368 177Q369 175
369 172Q370 166 370 159Q370 151 369 143Q368 139 367 137Q366 135 363 133Q360 132 357 132Q355 132 351 132L283 134L285 15Q285 11 285 9Q284 6 282 4T277 2Q275 1 271 1L223 0Q219 0 217 0Q213 0 211 2Q208 4 207 7Q207 9 207 13Q210 40 211 67Q213 101 212
136L44 128Q38 128 35 129Q30 130 27 133T23 142Q22 145 22 151V165Q22 169 23 172Q23 175 25 178Q26 180 27 182T30 186T33 190L126 330ZM212 400L76 189L217 190L212 400Z" />
<glyph unicode="5" glyph-name="five" horiz-adv-x="388" d="M262 388Q279 393 291 405Q294 408 295 409Q298 411 301 411Q303 411 307 411T313 410Q322 408 328 401Q333 394 334 385Q335 377 331 367Q329 362 323 351Q316 339 313 332Q310 326 308 324Q305 320
300 317Q294 314 281 314Q252 313 223 316Q197 318 172 323L147 270Q172 263 195 252Q252 224 283 176Q317 124 310 64Q302 -3 245 -58Q211 -91 172 -107Q128 -124 86 -116Q65 -112 46 -101Q41 -98 38 -95Q34 -91 32 -86Q31 -81 33 -76Q35 -73 39 -68L55 -50Q59
-46 61 -44Q65 -41 69 -39Q73 -38 78 -38Q80 -39 86 -41Q99 -46 113 -49Q137 -54 158 -52Q182 -51 201 -40Q227 -26 240 1Q253 26 253 57Q253 101 226 134Q204 161 155 184Q133 194 93 211Q88 213 86 214Q82 216 80 218Q78 221 78 225Q78 227 79 229Q80 230 81
232Q104 270 124 309Q140 341 154 375Q156 381 159 384Q162 388 167 390Q171 392 177 392Q180 392 187 391Q195 390 204 389Q226 386 233 386Q250 385 262 388Z" />
<glyph unicode="6" glyph-name="six" horiz-adv-x="388" d="M33 180Q29 246 52 308Q74 371 121 418Q164 462 244 505L281 524Q286 526 289 527Q293 528 298 528Q305 527 314 522Q320 519 324 515Q329 511 330 505Q331 502 331 499T328 494Q326 491 323 490Q322
489 318 487Q260 461 214 423Q173 390 147 351Q128 322 116 290Q133 303 153 312Q193 330 233 325Q262 321 287 305Q311 290 328 265Q365 210 354 139Q347 91 319 55Q276 -1 208 -5Q169 -7 134 10Q99 26 75 58Q38 107 33 180ZM112 252Q109 224 109 196Q109 132
127 93Q138 68 157 54Q178 37 203 39Q222 40 238 52Q253 62 263 80Q291 127 280 188Q275 218 259 240Q242 264 215 274Q186 285 154 275Q131 268 112 252Z" />
<glyph unicode="7" glyph-name="seven" horiz-adv-x="388" d="M222 384Q285 384 347 383Q352 383 354 382Q357 381 359 378T360 371Q360 368 358 364L273 159Q222 31 175 -99Q172 -106 170 -109Q166 -114 160 -116Q155 -117 149 -117Q143 -117 137 -116Q131 -115
128 -114Q123 -111 120 -108Q117 -104 118 -99Q118 -96 120 -90L291 309Q246 313 200 313Q156 313 112 311Q108 311 106 310Q103 310 100 308Q98 307 96 304Q94 303 93 299L76 258Q74 254 73 252Q71 249 67 248Q64 247 61 247Q58 247 54 248Q50 249 47 250Q43 252
41 255Q38 258 38 262Q38 264 40 269Q49 293 56 317Q62 337 67 357Q69 364 70 367Q72 372 76 375T85 381Q89 382 96 382Q159 384 222 384Z" />
<glyph unicode="8" glyph-name="eight" horiz-adv-x="388" d="M188 520Q236 522 276 496Q302 479 316 454Q332 427 329 397Q326 367 306 339Q289 317 260 295Q246 285 231 275Q245 264 258 253Q310 209 327 170Q342 137 338 104Q334 70 312 43Q291 17 259 4Q229
-8 194 -8Q136 -7 94 26Q75 41 64 60Q52 81 51 104Q49 140 72 176Q90 202 125 230Q138 241 153 251Q139 261 126 271Q95 296 78 321Q56 352 53 385Q50 416 65 445Q79 472 105 491Q142 518 188 520ZM184 481Q154 480 136 460T119 411Q121 387 137 362Q151 340 175
319Q189 307 205 296Q224 307 238 325Q265 359 264 400Q264 417 258 432Q252 449 240 460Q217 482 184 481ZM179 227Q162 215 149 199Q118 159 120 112Q121 87 133 68Q143 53 158 44Q173 35 191 33Q212 31 231 39Q250 48 262 65Q271 78 273 94Q275 110 271 126Q265
147 248 167Q236 182 214 200Q198 213 179 227Z" />
<glyph unicode="9" glyph-name="nine" horiz-adv-x="388" d="M184 393Q227 396 265 375Q301 355 324 317Q364 250 352 154Q341 65 291 -3Q243 -68 165 -106Q131 -122 94 -132Q89 -133 85 -134Q81 -134 77 -133Q70 -131 62 -124Q56 -119 53 -115Q49 -109 49 -102Q49
-96 54 -91Q56 -89 60 -88Q62 -87 66 -86Q112 -75 152 -50Q235 2 270 94Q254 84 237 76Q200 59 168 59Q143 59 121 70Q99 80 81 98Q34 147 33 217T80 340Q124 388 184 393ZM276 135Q284 185 279 230Q273 288 246 319Q236 331 223 338Q210 346 195 347Q176 348 159
339Q143 330 132 313Q115 287 112 242Q110 211 115 186Q122 155 141 136Q160 116 188 111Q214 107 241 116Q260 123 276 135Z" />
<glyph unicode=":" glyph-name="colon" horiz-adv-x="246" d="M171 86Q180 75 191 67Q195 65 196 64Q198 61 199 58Q202 53 201 47Q200 41 197 37Q194 34 188 30Q178 25 170 17Q163 11 158 3Q154 -3 153 -4Q152 -6 149 -9Q143 -14 135 -13Q127 -12 123 -7Q121
-6 119 -3Q118 -1 117 3Q113 13 106 22Q98 32 87 39Q84 41 83 42Q81 44 80 46Q77 49 77 55Q77 59 81 64Q82 66 87 71Q98 80 107 91Q113 98 119 106Q125 112 128 115Q134 119 140 119T151 115Q153 113 154 111Q155 110 157 106Q162 95 171 86ZM171 344Q180 333 191
325Q195 323 196 322Q198 319 199 316Q202 311 201 305Q200 299 197 295Q194 292 188 288Q178 283 170 275Q163 269 158 261Q154 255 153 254Q152 252 149 249Q143 244 135 245Q127 246 123 251Q121 252 119 255Q118 257 117 261Q113 271 106 280Q98 290 87 297Q84
299 83 300Q81 302 80 304Q77 307 77 313Q77 317 81 322Q82 324 87 329Q98 338 107 349Q113 356 119 364Q125 370 128 373Q134 377 140 377T151 373Q153 371 154 369Q155 368 157 364Q162 353 171 344Z" />
<glyph unicode=";" glyph-name="semicolon" horiz-adv-x="235" d="M85 86Q98 100 107 116Q111 123 114 125Q119 129 125 129Q132 129 137 124Q139 122 140 119L143 113Q146 105 150 97L164 70Q173 50 174 29Q175 1 161 -29Q149 -54 127 -77Q108 -96 85 -111Q80
-114 77 -115Q73 -116 69 -116T60 -112Q57 -110 54 -106T50 -98Q49 -93 50 -89T55 -81Q57 -78 62 -75Q75 -66 85 -58T100 -42Q107 -32 108 -22T106 -3Q102 5 95 12Q85 21 72 23L63 24Q59 25 55 28Q52 30 50 34T47 42Q46 50 51 56Q54 60 62 66Q75 75 85 86ZM149
345Q158 334 169 326Q173 324 174 323Q176 320 177 317Q180 312 179 306Q178 300 175 296Q172 293 166 289Q156 284 148 276Q141 270 136 262Q132 256 131 255Q130 253 127 250Q121 245 112 246Q105 247 101 252Q99 254 97 256Q96 258 94 262Q91 272 84 281Q76
291 65 298Q62 300 61 301Q59 303 58 305Q55 308 55 314Q55 318 58 323Q60 325 65 330Q76 339 85 350Q91 357 97 365Q103 371 106 374Q112 378 118 378T129 374Q131 372 132 370Q133 369 135 365Q140 354 149 345Z" />
<glyph unicode="A" glyph-name="A" horiz-adv-x="616" d="M317 639Q323 640 328 637T338 629Q341 624 342 618Q343 615 344 606Q347 582 358 549Q399 431 443 314L515 131Q528 99 539 78Q546 65 551 58Q558 48 568 42Q568 42 589 32Q596 29 600 24Q602 22 603
19Q605 15 604 12Q604 9 603 7T599 4T593 2Q591 2 588 2Q556 3 525 2Q472 1 419 -5Q415 -5 412 -5Q409 -4 406 -2Q404 0 403 4Q402 6 401 10Q401 13 401 16Q401 19 402 22T407 26Q409 27 413 28L423 30Q434 32 439 34Q448 38 452 45Q457 52 457 61Q457 67 453 77L399
218Q348 220 296 220Q240 220 184 217L133 94Q128 83 127 78Q125 68 127 60Q130 52 137 47Q142 43 153 40L188 31Q193 30 195 29Q199 27 201 24Q206 18 206 10Q206 6 204 3Q203 -1 200 -3T193 -6Q190 -7 185 -6Q148 -1 111 0Q67 1 23 -2Q19 -2 17 -2Q14 -1 12 0T8
5Q7 8 6 11T5 17Q5 21 6 24Q7 27 9 29Q11 30 15 32L33 40Q42 44 47 47Q54 52 59 58Q66 66 76 86Q109 154 142 231L200 372L248 483Q283 560 294 612Q297 624 301 630Q307 638 317 639ZM294 487Q270 434 248 381Q224 323 203 263Q241 259 279 258Q331 256 383 258L344
361L294 487Z" />
<glyph unicode="B" glyph-name="B" horiz-adv-x="512" d="M128 621Q152 621 207 627Q240 631 260 630Q319 628 365 596Q397 573 414 542Q433 508 430 471Q428 442 412 416Q397 391 373 373T319 346Q388 335 436 288Q463 262 477 230Q491 196 490 161Q488 122 468
89Q448 57 415 36Q360 2 269 0L146 2Q93 2 45 -5Q40 -6 37 -6Q32 -5 29 -4T23 1T19 9Q18 14 19 18T22 26T30 32Q33 33 39 34L52 36Q65 38 72 42Q81 47 86 57Q90 64 91 76Q91 82 92 97Q96 198 96 299Q96 386 94 472Q93 512 89 539L86 557Q83 567 79 574Q74 582 66
586Q60 589 48 590L39 591Q33 592 30 593Q25 594 22 597T18 605T17 614T21 623T29 629Q33 631 38 630Q42 630 48 629Q87 621 128 621ZM341 466Q341 515 307 551Q285 574 253 585Q236 591 219 592Q210 593 204 592Q196 591 190 588Q183 584 180 577Q178 572 178
562L172 386V374Q173 367 176 362T185 355Q189 353 197 353Q212 353 227 355Q253 358 273 366Q296 376 312 392Q341 422 341 466ZM402 181Q396 233 366 267Q347 289 318 303Q293 314 260 319Q229 324 196 322Q190 322 187 321Q182 319 179 316T174 308T173 298V196Q173
140 175 83Q175 74 176 69Q178 62 182 56Q186 51 193 48Q198 45 206 44Q234 39 262 41Q306 44 341 61Q366 73 381 92Q396 110 401 134Q405 156 402 181Z" />
<glyph unicode="C" glyph-name="C" horiz-adv-x="608" d="M475 613Q495 608 514 600Q527 595 536 594Q535 594 558 597Q564 598 567 597Q573 595 576 592T579 583Q579 580 577 574Q572 558 568 541Q563 518 561 494Q560 479 557 474T550 466Q545 463 540 463T531
466T525 474Q522 481 522 494V498Q522 507 521 512Q520 519 517 524T508 535Q504 539 497 543Q469 561 438 572Q393 588 351 589Q262 590 196 525L193 522Q117 443 114 320V315Q114 239 146 176Q178 114 235 75Q294 35 362 30Q433 25 487 60Q528 87 548 131Q553
143 556 146T564 151Q568 152 572 150Q575 148 578 145Q579 142 580 138Q580 133 577 123L565 84L555 52Q552 43 551 37Q550 33 550 32Q549 29 547 27T542 24Q541 23 537 22Q500 12 467 5Q404 -9 359 -9Q284 -10 213 22Q171 41 138 67Q83 111 53 175Q24 237 24
309Q24 378 50 439Q78 502 130 545Q186 591 266 612Q375 640 475 613Z" />
<glyph unicode="D" glyph-name="D" horiz-adv-x="708" d="M131 620L304 634H328Q402 632 471 606Q529 584 573 549Q621 510 648 459Q683 392 679 310Q675 230 637 162Q594 86 516 44Q447 6 352 0Q324 -2 185 1Q150 2 124 1Q81 0 40 -6Q34 -7 31 -6Q27 -6 23 -3Q19
-1 17 4Q15 7 14 12T13 21Q14 26 16 30T23 36Q26 37 32 38L43 39Q55 40 60 41Q70 44 76 49Q83 54 86 63Q88 69 88 80Q90 178 90 277Q90 409 86 541Q86 551 85 555Q83 563 79 568Q75 574 68 577Q63 579 54 580L36 582Q31 583 28 583Q24 585 21 587T17 594T15 602Q15
608 18 612T26 620Q30 623 36 623Q40 624 47 623Q88 618 131 620ZM288 593Q246 592 205 581Q198 579 194 577Q190 573 187 568Q185 563 185 557Q184 554 184 545Q180 438 178 331Q176 217 177 104Q177 95 178 91Q179 84 182 79Q185 73 191 69Q195 66 202 63Q274
32 351 42Q421 51 477 91T562 195Q588 253 586 320Q584 374 564 422Q528 508 447 554Q375 595 288 593Z" />
<glyph unicode="E" glyph-name="E" horiz-adv-x="570" d="M248 624Q362 625 475 632Q484 633 488 632Q495 632 500 629Q506 626 508 620Q509 617 509 613Q509 611 508 607L490 507Q489 502 488 500Q487 497 485 495T479 491T471 490Q468 490 465 492T460 496T457
502V509V531Q457 542 455 548Q453 557 447 564Q441 569 432 573Q425 576 415 578Q379 586 350 588Q322 590 294 590Q250 590 206 586Q200 585 197 585Q193 583 190 580T185 573Q184 570 184 564Q181 524 179 484Q175 412 175 340H246Q296 340 346 342L371 343Q386
343 395 347Q407 351 414 361Q419 369 423 384L426 397Q427 400 428 402Q429 405 431 406T436 409H442Q446 409 449 407Q453 406 455 404T459 397V390Q457 357 456 324Q455 279 457 235V227Q456 223 454 220T448 216T440 214T433 215T428 219T424 225T423 232L422
246Q421 263 416 272Q409 284 396 290Q386 294 369 296L342 298Q285 302 227 302Q202 302 177 301Q176 252 177 203Q178 140 181 78Q182 65 184 57Q185 53 187 51Q188 48 191 47Q194 45 197 45Q200 44 204 44Q239 42 274 42T345 43Q413 45 450 66Q501 94 516 148Q517
152 518 154Q520 157 522 158T528 161H534Q538 161 540 160Q544 159 546 157T548 150Q549 148 548 144Q543 117 535 90Q524 51 508 13Q506 8 504 6Q502 3 498 1Q495 0 491 -1H483Q362 1 241 0Q190 0 139 -1Q80 -2 40 -9Q34 -10 31 -10Q26 -10 23 -8T17 -1T13 7T13
14T16 20T21 24T28 26L45 29Q56 31 60 32Q69 34 74 38Q81 42 84 49Q86 54 87 64Q95 185 96 307Q97 417 92 527Q91 542 90 548Q89 560 84 568Q79 578 70 584Q63 588 50 591L38 594Q34 595 32 596T28 599Q24 604 24 610Q24 614 25 618T30 624T38 628H46Q147 623 248
624Z" />
<glyph unicode="F" glyph-name="F" horiz-adv-x="502" d="M258 617Q329 617 400 619Q435 620 459 625Q468 627 471 627Q478 628 482 625Q488 623 490 617Q491 614 491 611Q491 609 490 605Q487 587 485 569Q482 540 482 510V503L480 497Q477 491 470 488Q466 487
462 487T455 489T450 496Q449 499 448 504L446 517Q443 537 436 546Q432 553 426 558Q420 562 412 565Q395 572 369 575Q332 579 294 581Q254 583 213 582Q202 582 197 580Q188 577 183 571T175 557Q174 551 174 540L173 337Q210 336 246 336Q294 336 341 337H361Q374
338 381 340Q392 343 398 351Q402 357 405 370L408 384Q409 388 410 390Q411 393 412 395Q414 397 417 398T423 400Q427 400 430 398T435 393Q436 390 437 386V379Q436 351 436 322V250V243L434 237Q431 231 424 229Q420 228 417 228T411 231T406 238Q405 240 405
245L404 255Q403 262 402 266Q401 272 398 276Q392 286 381 290Q373 293 359 294Q339 295 337 295L251 301L173 305L170 102Q170 86 171 78Q172 65 178 55T196 40Q204 36 219 35L253 32Q264 31 269 28Q273 26 275 22T278 14Q278 8 275 4Q272 -1 267 -3T256 -5Q252
-5 245 -4Q194 3 142 3T38 -3H32Q28 -3 26 -2Q20 1 18 8Q17 12 17 16Q18 21 20 24T27 29Q30 30 35 31L43 32Q52 33 57 35Q64 37 68 41T77 53Q79 58 81 66Q89 97 91 143Q95 220 95 297Q95 400 90 502Q88 535 83 558Q81 566 79 570Q76 577 71 581T60 586Q55 588 47
588L28 589Q23 589 20 590Q16 591 14 594T10 601V609Q10 613 12 617Q14 620 17 622T24 626H32Q145 618 258 617Z" />
<glyph unicode="G" glyph-name="G" horiz-adv-x="656" d="M361 633Q442 638 516 609Q519 608 522 606Q527 604 529 603Q533 602 536 603Q537 604 539 605Q540 606 541 608L551 621Q555 626 558 627Q560 628 562 628T567 628Q571 626 573 621Q574 618 575 612L592
486V481Q592 478 591 476Q589 472 584 469Q580 467 576 466Q571 466 567 467Q563 469 560 472Q558 475 556 480Q544 508 523 530Q491 562 442 578Q395 593 346 590Q295 587 252 565Q199 538 162 486Q108 411 108 321Q108 213 185 128Q189 125 192 121Q266 45 366
34Q441 26 508 59Q519 64 523 70Q526 74 527 79Q528 82 528 88L529 224Q529 237 528 243Q527 253 521 260Q516 268 507 272Q500 274 488 275L430 278Q425 278 422 279Q417 280 414 282T409 289T407 297Q407 302 409 305T415 311T423 314Q426 315 432 314Q454 311
476 310Q553 305 629 312H634Q636 312 638 311T642 307L644 303Q645 298 642 294Q641 292 639 290Q638 289 635 288L623 282L617 279Q614 277 612 274T610 268Q609 265 609 261L605 94Q605 79 606 72Q608 67 611 63T619 55T626 49Q629 44 629 40Q629 37 628 35T624
31Q620 28 613 27Q575 19 541 13Q429 -8 364 -7Q231 -6 139 66T23 253Q18 280 17 306Q15 370 39 428T110 530Q154 571 217 598Q288 629 361 633Z" />
<glyph unicode="H" glyph-name="H" horiz-adv-x="767" d="M153 629Q203 627 252 632H260Q264 631 266 629T271 623Q272 619 271 615Q270 607 263 602Q260 599 256 598Q253 598 248 597L238 596Q227 595 223 594Q215 593 209 589Q202 586 199 579Q196 574 194 565Q190
542 189 507L185 348L606 346L603 525Q603 545 602 550Q601 565 597 574Q592 587 581 593Q573 598 557 600L543 602Q537 603 535 604Q530 606 528 609T525 617T525 626Q526 629 528 631T532 635T539 638Q541 638 545 637Q588 630 632 629Q681 628 729 635Q734 636
737 635Q742 635 745 632T749 625Q751 621 750 617Q749 611 745 606Q743 604 740 603Q738 602 734 601L719 597Q708 594 703 590Q696 585 692 577Q690 570 689 560Q688 556 688 542Q685 452 683 363Q681 248 680 132Q680 90 686 63Q689 48 694 42Q698 38 703 35Q707
33 714 32L735 28Q739 27 741 27Q743 26 745 24Q750 20 751 14Q752 10 751 6T747 -1T740 -4Q737 -5 732 -4Q691 2 650 2Q599 2 549 -7Q545 -8 543 -8Q540 -7 538 -6T534 -2T531 3Q529 7 529 12Q528 17 529 21Q531 25 535 28Q537 30 543 31L561 35Q573 38 579 41Q587
47 591 56Q595 63 596 74Q597 79 598 93Q601 138 603 184Q605 242 604 300L184 302V82Q184 72 185 68Q185 60 188 54Q192 48 198 44Q202 41 211 39L246 29Q250 28 253 26Q256 25 258 22T260 15Q261 12 261 8T260 2Q259 -2 257 -4T250 -6Q248 -7 244 -6Q193 3 141
3Q90 3 40 -4Q36 -5 34 -4Q31 -4 29 -1Q27 1 26 4Q25 6 25 10V18Q25 23 27 26Q29 30 32 32Q35 33 40 34L55 36Q64 37 69 38Q76 40 81 44Q87 49 89 55Q91 60 92 69Q102 196 104 324Q106 412 104 499Q103 532 102 558Q101 569 100 574Q98 583 93 588Q88 595 80 597Q74
599 64 599H55Q49 599 45 600Q40 602 37 605T34 614Q33 619 35 624Q38 633 47 637Q51 639 55 639Q58 639 64 638Q108 631 153 629Z" />
<glyph unicode="I" glyph-name="I" horiz-adv-x="334" d="M172 624Q231 624 290 632Q296 633 299 632Q304 632 307 629T313 622Q314 618 314 613Q313 604 306 599Q303 596 298 596Q295 595 290 595H270Q258 595 252 594Q243 592 237 587T225 572Q222 566 220 555Q215
533 214 501Q210 388 210 275Q210 185 213 96Q214 74 214 72Q215 58 218 50Q224 38 234 33Q242 28 257 28L290 27Q295 27 298 26Q302 25 305 23T309 16T310 8T307 1T301 -4Q298 -5 294 -6Q291 -6 286 -5Q223 3 159 2Q102 1 46 -7Q41 -8 38 -7Q34 -7 31 -5T25 2Q24
6 24 10T25 18T30 24T38 28Q41 29 46 29H71Q89 29 99 32Q112 37 121 49Q128 59 132 74Q134 84 135 102Q137 129 137 168Q137 238 136 308Q134 422 129 536Q128 550 127 558Q124 569 117 577T99 589Q92 592 78 593L51 595Q46 595 43 596T37 600Q31 605 30 613Q30
617 31 621Q33 625 36 628T44 631Q47 632 52 631Q112 624 172 624Z" />
<glyph unicode="J" glyph-name="J" horiz-adv-x="330" d="M173 624Q239 623 304 631Q308 632 311 631T317 628Q319 625 320 622T322 615Q322 610 321 607Q321 603 319 600Q317 596 313 595Q310 594 305 594H281Q265 594 257 590Q245 586 238 575Q232 566 230 552Q229
545 229 528Q226 407 226 286Q225 123 229 -39Q229 -47 228 -51Q226 -56 223 -62Q191 -111 155 -150Q134 -173 115 -188Q97 -201 82 -208Q62 -218 44 -218T14 -210Q7 -206 3 -199Q-1 -191 1 -183Q2 -175 10 -168Q15 -163 25 -158Q40 -149 50 -146Q70 -139 88 -144Q95
-147 98 -147Q103 -147 108 -145Q112 -143 115 -138Q118 -135 121 -129Q143 -84 146 -9Q152 133 151 276Q149 398 143 520Q142 539 140 548Q137 563 130 573Q121 584 107 589Q98 592 80 592H52Q47 592 44 593Q40 594 38 596T34 603Q32 606 32 610V619Q33 625 36
628Q39 632 44 633Q47 634 53 633Q113 624 173 624Z" />
<glyph unicode="K" glyph-name="K" horiz-adv-x="630" d="M137 622Q191 622 245 629Q250 630 253 629Q257 628 259 625Q262 623 263 619T264 611T263 604Q262 600 260 597T253 593Q251 592 246 592Q233 591 223 590Q215 589 209 587Q201 584 196 579T188 567Q187
561 186 552Q183 496 181 440T179 329L280 426L388 534Q397 544 400 548Q407 556 408 565Q408 569 407 573T401 581Q398 584 393 586Q390 587 384 588L373 590Q369 591 366 592Q363 594 361 597Q359 599 358 603V610Q358 613 359 616T362 621T368 624H374Q417 620
461 623Q499 625 536 632Q542 633 545 633Q550 632 553 630T559 623T562 614T562 605Q561 600 558 597T551 591Q548 589 542 588Q534 586 526 583Q505 575 479 552L347 436L235 335L530 87Q570 54 601 39L609 35Q613 32 616 29Q622 21 621 12Q621 9 619 6Q618 3
616 1T609 -1H603Q566 3 529 3Q485 3 442 -3H436Q433 -3 431 -1T428 4Q427 6 426 9T425 16Q425 19 426 22T430 27Q432 29 436 30L448 34Q450 35 451 35Q453 36 454 37T455 40T455 43Q455 46 452 49Q451 51 448 54Q431 72 402 96L179 282V210Q180 152 182 95Q183
80 183 76Q184 65 187 58Q191 49 199 44Q204 40 216 37L247 30Q252 29 254 28Q258 26 261 24Q266 19 267 11Q267 6 266 2Q264 -2 261 -4T252 -8Q249 -8 243 -7Q194 1 145 2T47 -3Q42 -4 39 -3Q35 -3 32 -1Q25 3 22 11Q21 16 21 20Q22 25 25 29T33 34Q36 36 42 36L59
37Q70 38 76 40Q84 44 88 52Q92 59 93 69Q93 73 94 86Q96 124 97 159Q100 255 100 352Q100 444 96 536Q96 548 95 552Q94 561 91 567Q88 575 81 579Q76 583 66 585L41 591Q37 592 35 593T31 596Q27 600 26 607Q26 612 27 616Q28 621 31 624T39 628Q42 629 48 628Q92
622 137 622Z" />
<glyph unicode="L" glyph-name="L" horiz-adv-x="542" d="M138 619Q188 619 237 623H246Q251 623 255 620Q259 618 261 614T263 605Q263 601 261 597T255 590Q252 588 248 586Q245 586 239 585L222 583Q211 582 206 580Q198 577 193 571T185 556Q183 551 182 540Q180
520 179 491Q175 398 174 305Q173 232 174 158Q174 132 175 91Q175 79 176 74Q177 64 181 57Q185 49 193 46Q199 43 210 43Q238 42 265 43Q303 44 341 47Q408 53 447 69Q478 82 492 103Q498 112 501 122T506 134Q507 137 510 139T516 142Q521 143 526 140Q530 137
532 131Q533 127 533 121Q532 118 531 111Q525 82 516 54Q508 29 499 5Q498 1 497 -1Q495 -4 493 -5Q490 -7 487 -8Q485 -8 481 -7Q451 -1 406 0Q335 1 264 1Q151 1 39 -4H32Q28 -3 25 -1T21 6Q19 9 19 13T20 20Q21 24 23 26T30 31Q32 31 37 32L54 34Q67 35 73
39Q82 43 87 52Q91 60 92 71Q93 77 93 91L95 301Q96 383 96 465Q96 510 92 540Q91 550 89 556Q87 564 83 570Q78 577 71 580Q66 583 56 584L41 586Q36 587 33 588Q29 589 26 592Q20 597 20 606Q20 610 22 613T27 619T34 622H42Q90 619 138 619Z" />
<glyph unicode="M" glyph-name="M" horiz-adv-x="881" d="M138 626Q173 624 207 623Q213 623 217 622Q222 620 225 616Q228 613 231 608Q232 605 234 598Q244 567 265 523L351 346L455 142L549 323L652 510Q683 565 698 602Q700 608 702 610Q704 614 707 617Q711
620 715 621H724Q746 619 769 619Q803 619 836 621H845Q850 620 853 617Q857 615 858 611T859 601Q857 594 851 590L845 588Q842 587 838 587L824 586Q807 585 798 581Q785 576 777 564Q770 554 768 540Q766 531 766 513Q764 415 765 317Q766 238 769 159Q770 123
773 98L776 75Q779 63 785 54Q792 45 803 40Q810 36 825 34L839 32Q843 31 845 31Q848 30 851 28Q856 24 857 17Q858 13 856 10Q855 6 853 4T846 0H838Q792 4 745 4Q678 4 611 -4Q607 -5 604 -4Q601 -4 598 -2Q591 1 589 8Q588 12 588 15Q588 19 590 22T596 28Q598
29 603 30L630 36Q652 41 662 48Q677 58 684 75Q689 88 690 108Q691 116 691 143Q692 230 692 316Q692 409 691 501L594 322L503 145Q473 85 459 41L455 27Q452 18 449 13Q445 6 438 4Q431 1 424 5Q420 7 417 12Q415 15 413 20L408 39Q396 81 370 137L287 309L186
500L178 378Q172 268 168 158Q167 115 169 86Q170 72 174 64Q178 54 188 47Q196 41 208 38Q215 36 230 34L244 32Q249 31 251 30Q255 29 257 27T261 21T262 13T260 6Q259 2 256 0T249 -3H241Q190 2 138 2Q85 2 33 -2H26Q23 -1 21 1T17 7Q16 9 16 13V20Q17 24 19
27Q22 30 25 31Q27 32 32 33L48 35Q71 38 83 44Q99 53 108 70Q115 84 118 105Q119 114 121 142L142 464Q144 496 144 509Q143 535 134 553Q124 575 103 585Q88 593 59 595L47 596Q42 596 39 597Q35 598 32 601Q26 606 26 615Q26 619 28 623Q29 627 32 629T41 633Q44
634 49 633Q93 629 138 626Z" />
<glyph unicode="N" glyph-name="N" horiz-adv-x="763" d="M93 631Q115 631 137 632H144L150 630Q154 627 159 620Q172 602 196 578L374 402L629 155Q634 248 634 342Q634 428 629 513Q628 539 627 543Q626 561 621 572Q614 586 602 594Q592 600 573 602L557 604Q545
605 540 609Q536 612 534 615Q531 619 531 624T534 633T542 640Q546 642 552 642Q555 642 562 641Q604 634 646 631Q692 628 738 631H744Q746 630 748 628T751 623Q752 621 753 618T753 613Q753 610 752 608T748 604T743 603L728 601Q713 599 706 595Q696 589 690
578Q686 570 684 556Q683 550 682 533Q676 441 673 348Q670 247 670 146Q670 72 680 21Q681 16 681 14Q681 10 680 6Q677 -1 670 -5Q666 -7 662 -8Q657 -8 653 -7T646 -2Q644 1 641 6Q618 53 565 107L441 230L295 368L143 518Q141 387 141 256Q141 187 142 117V92Q143
77 147 67Q152 55 163 48Q171 43 187 41L240 34Q245 33 248 32Q252 31 254 28T258 21T259 13Q259 8 257 5Q255 0 252 -2T244 -5Q241 -6 235 -5Q186 2 136 2Q87 2 38 -5Q34 -6 31 -5Q28 -5 25 -3T21 2Q19 5 18 8Q17 12 17 15Q18 19 19 22T24 27Q27 28 31 29L53 34Q67
37 74 42Q83 49 87 60Q90 69 91 82V105L97 465Q98 506 95 533Q94 546 91 554Q88 565 82 574Q75 582 65 587Q58 591 45 594L25 599Q21 600 19 601Q16 602 14 605Q9 609 8 616Q7 621 8 625T12 632T19 636Q22 637 28 636Q60 632 93 631Z" />
<glyph unicode="O" glyph-name="O" horiz-adv-x="720" d="M619 519Q688 433 688 319Q688 229 642 151T518 30Q409 -30 286 -2Q278 0 269 2Q154 35 84 134Q77 144 71 155Q23 236 26 327Q29 416 78 491Q127 564 208 604Q324 661 450 628Q458 625 466 623Q559 593
619 519ZM178 526Q109 455 109 346Q109 338 110 330Q115 250 160 178Q222 79 325 48Q379 32 431 43Q485 54 526 90Q573 131 592 195Q610 253 602 320Q591 408 542 478Q502 535 446 565Q378 601 305 591Q231 580 178 526Z" />
<glyph unicode="P" glyph-name="P" horiz-adv-x="524" d="M129 636L241 640H243Q354 637 429 570Q462 540 480 504Q500 465 499 423Q498 369 462 323Q413 260 320 237Q247 219 169 232V179Q169 132 171 86Q171 74 172 69Q173 60 177 54Q181 46 189 42Q194 39 205
38L244 33Q250 32 253 31Q257 30 260 27Q268 21 268 12Q268 7 266 3T259 -5Q254 -7 249 -7Q246 -7 239 -6Q194 2 149 3Q97 4 45 -6Q39 -7 35 -7Q30 -7 26 -5Q21 -2 19 2T16 12Q16 21 22 27Q25 29 29 31Q32 32 37 33L51 36Q61 38 65 39Q73 42 77 45Q83 50 86 56Q88
61 88 70Q91 183 90 297Q89 421 84 544Q83 558 82 564Q80 576 75 584Q70 593 60 597Q53 600 40 601L28 602Q23 602 20 603Q16 605 13 608T9 616Q8 620 9 624T12 632T17 638T25 641Q28 642 34 641Q79 635 129 636ZM241 600Q219 601 198 597Q192 596 188 595Q183
593 180 589Q176 586 174 581Q173 577 173 571Q169 497 168 423Q167 348 168 272Q244 253 310 278Q338 288 358 305Q380 323 393 348Q411 383 409 427Q407 488 373 533Q350 564 315 582Q281 598 241 600Z" />
<glyph unicode="R" glyph-name="R" horiz-adv-x="663" d="M127 624L243 636Q342 642 410 595Q443 572 463 540Q484 506 485 468Q487 420 458 378Q419 321 350 306L409 222Q460 150 486 118Q545 44 603 20Q622 12 642 8Q648 7 651 6Q655 4 658 1Q661 -3 662 -7T661
-16Q658 -23 651 -27Q645 -29 636 -29Q606 -28 577 -21Q511 -4 452 48Q408 86 356 156Q316 209 259 295Q240 295 221 296Q192 298 164 303Q164 240 165 177L167 84Q167 72 168 67Q169 57 173 51Q177 43 185 39Q190 36 201 33L222 28Q232 26 237 23L243 17Q245 14
246 10Q247 5 245 0T237 -7Q233 -10 227 -10Q224 -9 217 -8Q181 0 145 1Q92 3 41 -8Q34 -9 31 -9Q26 -9 22 -7T15 0T12 10Q12 19 18 24Q21 26 25 28Q28 28 33 29L41 30Q54 32 61 35Q70 41 75 51Q79 59 81 71Q81 76 82 92Q87 192 88 292Q89 416 84 540Q83 552 82
558Q80 568 75 575Q70 583 61 587Q55 590 43 591L35 592Q30 593 27 594Q23 595 21 597T17 604T15 612Q15 617 17 621T23 627T32 630Q35 630 41 629Q82 622 127 624ZM242 599Q221 599 200 594Q194 593 191 591Q186 589 183 586T178 577Q177 573 176 567Q172 531
170 477L166 334Q206 329 237 328Q279 326 306 333Q343 342 366 367Q384 387 391 414Q397 439 394 467Q388 523 351 559Q330 580 301 590Q273 599 242 599Z" />
<glyph unicode="S" glyph-name="S" horiz-adv-x="475" d="M254 634Q305 636 355 622Q374 617 380 617T394 618Q398 619 406 622L418 627Q423 629 425 629Q430 630 433 629Q437 627 438 623Q439 620 438 615Q434 587 434 559Q434 528 438 497Q439 491 439 488Q438
484 437 480Q435 476 431 474T423 471Q419 471 416 472T409 477Q407 480 406 484Q406 486 405 492Q400 535 365 563Q344 580 314 589Q287 597 257 598Q233 599 212 595Q189 590 171 578Q152 565 140 545Q128 525 126 502Q122 462 144 430Q159 408 186 392Q204 382
238 369Q300 345 327 332Q395 298 425 255Q458 207 452 149Q445 85 397 43Q368 18 327 6Q293 -4 249 -5Q182 -6 107 14Q104 15 100 16Q96 18 94 18Q90 18 87 17Q84 17 81 14L72 7Q66 3 63 1Q57 -1 52 1T45 9Q43 13 43 20Q42 49 37 77Q30 116 17 153Q15 159 14 162Q14
167 15 171Q16 176 19 179T27 184Q32 186 37 185T46 179Q49 176 51 171Q53 168 54 161Q56 151 59 142Q69 109 89 90Q105 74 131 64Q158 53 203 45T279 38Q308 40 329 51Q355 64 369 90Q382 114 382 144Q381 178 363 205Q344 234 302 255Q290 261 202 296Q120 328
86 369Q61 399 54 435Q46 472 58 508Q76 566 132 600Q183 632 254 634Z" />
<glyph unicode="T" glyph-name="T" horiz-adv-x="674" d="M337 615Q449 614 561 616Q607 617 638 624Q643 625 646 625Q651 625 654 623T657 615Q658 612 656 607L644 564L634 521Q633 517 632 515Q631 511 628 509Q623 505 616 505Q613 505 610 506Q607 508 605
510T603 516V522L604 533Q605 542 604 547Q602 554 596 559Q592 564 584 566Q579 567 570 568Q527 573 483 575Q435 577 387 576Q385 471 384 365Q383 256 384 148Q384 115 385 92Q385 79 386 73Q387 62 391 55Q396 47 405 43Q411 40 423 39L460 37Q471 36 476
34Q484 29 486 21Q488 14 485 8T475 -2Q470 -4 462 -5Q458 -5 449 -3Q399 6 348 5Q284 4 222 -11Q215 -13 211 -12Q205 -12 201 -9T194 0T192 11T196 21Q198 23 201 24Q202 25 206 26L258 38Q269 41 274 43Q282 48 287 55Q292 61 294 71Q295 77 296 88Q298 112
298 147L300 472Q300 533 294 574L254 576Q186 578 119 570Q92 567 78 558Q58 546 53 524Q51 517 50 515Q48 510 45 508T36 505Q32 504 27 506Q23 508 20 511T15 518T15 528Q15 531 18 536L32 566Q46 597 58 628Q60 633 61 635Q64 639 67 640T75 639Q78 638 82
635Q92 627 104 624Q113 622 129 621Q233 616 337 615Z" />
<glyph unicode="U" glyph-name="U" horiz-adv-x="701" d="M122 614Q182 614 242 621Q246 622 249 621Q252 620 254 618T259 613Q260 610 261 606T261 599Q261 595 259 592Q257 589 254 588Q252 586 247 586L211 582Q200 581 194 579Q185 577 179 573Q172 568 169
560Q167 554 166 543Q161 457 160 370Q159 292 161 214Q162 168 171 142Q184 106 213 83Q240 61 279 51Q310 42 351 40Q393 38 426 43Q467 50 497 68Q530 89 548 123Q561 149 568 195Q580 280 582 365Q584 448 576 531Q575 543 574 548Q572 557 568 564Q563 571
556 575Q550 577 539 578L511 580Q506 580 503 581Q499 582 496 584T492 591T490 599T492 606T497 612T504 614Q507 614 512 614Q563 609 615 610Q645 611 675 613Q679 613 681 613Q685 612 687 610T690 604Q691 601 691 598T690 592Q690 589 688 587T683 584Q681
583 677 583H665Q656 583 652 582Q645 581 640 578Q635 574 633 568Q631 563 631 555Q630 504 628 452Q626 381 623 333Q619 264 613 218Q608 180 599 143Q593 116 584 99Q573 78 556 61Q530 37 490 21Q430 -2 349 -5Q246 -9 177 29Q138 51 112 83Q91 109 84 139Q78
162 80 202Q84 273 84 345Q84 444 77 542Q76 553 76 556Q75 565 72 570Q68 577 62 580Q57 582 48 583L31 584Q26 584 24 585Q20 586 17 587Q11 592 9 599Q8 603 9 607T14 614T22 618Q25 618 31 618Q76 614 122 614Z" />
<glyph unicode="V" glyph-name="V" horiz-adv-x="707" d="M111 623Q159 622 207 627Q212 627 214 627Q218 626 220 624T225 619Q226 616 227 612Q227 609 227 606Q226 603 225 601T220 598Q218 597 214 597L187 596Q182 596 179 595Q175 595 172 593Q165 589 163
581Q161 575 164 566Q165 562 169 552L253 360L366 118L475 345L564 541Q568 551 569 556Q570 565 567 572T556 584Q551 587 541 590L535 592Q526 595 522 598Q518 600 517 603Q514 606 514 610Q513 615 516 619Q518 623 523 625Q527 627 532 627Q535 627 541 627Q575
625 608 623Q646 621 684 620Q688 620 690 619Q694 618 696 616T700 611Q701 608 701 605Q701 601 700 598T697 592T692 587Q689 586 685 585L673 582Q660 579 652 575Q643 570 635 562Q626 552 612 525L415 131Q380 61 372 10Q370 -5 366 -11Q363 -17 358 -19Q353
-22 347 -22Q342 -22 337 -19Q333 -16 329 -12Q325 -6 321 8Q299 79 252 179L80 543Q67 570 61 577Q54 585 46 589Q39 592 27 594L21 595Q17 596 15 596Q12 598 10 600Q6 604 5 611Q4 615 5 619Q5 624 8 627Q11 630 15 631Q18 632 23 631Q67 624 111 623Z" />
<glyph unicode="W" glyph-name="W" horiz-adv-x="973" d="M140 634Q196 633 252 638Q257 638 260 638Q264 637 266 635T270 628Q271 624 271 620Q271 617 270 614Q268 611 266 609T260 605Q258 604 254 604L229 602Q215 601 208 597Q198 592 195 582Q191 572 193
560Q194 554 199 540L280 310L340 145L410 298L476 452L455 499L427 559L419 575Q415 586 411 591Q405 598 397 602Q390 604 379 604H375Q371 604 369 605Q365 606 363 608Q361 610 360 614Q359 616 358 620Q357 624 358 627Q358 631 360 634Q362 637 365 638Q368
638 372 638Q419 633 467 633Q524 633 580 639Q584 639 586 639Q589 638 592 636Q594 634 595 631Q596 628 597 625T597 619Q597 615 596 613Q594 610 591 609Q589 608 585 607L556 603Q544 601 538 598Q528 594 524 586Q519 578 520 568Q520 561 524 549Q561 435
601 323L670 137Q711 242 749 349Q779 435 807 522Q813 541 813 552Q813 568 804 580Q795 592 779 598Q769 602 749 604L732 606Q728 606 726 607Q723 608 720 610Q716 613 714 620Q713 625 714 629Q715 634 718 637T727 642Q730 643 736 642Q790 637 844 636Q893
635 941 638Q945 638 948 638Q951 637 953 635T957 629Q958 626 958 623T957 617Q956 613 954 611T949 607Q947 606 943 605L924 601Q910 598 902 594Q892 589 885 579Q878 570 865 538L791 349L705 120Q682 57 669 12Q665 -1 662 -6Q659 -11 656 -13Q652 -16 647
-17Q642 -18 637 -15Q632 -13 629 -8Q625 -3 622 12Q616 45 601 91L550 244L493 408L415 220L356 68Q343 34 339 9Q338 4 337 1Q336 -3 334 -5Q329 -12 321 -13Q311 -14 304 -7Q301 -4 299 1Q297 4 296 10Q289 38 278 75Q240 201 195 324Q157 429 113 531Q97 568
91 576Q84 587 73 593Q65 597 49 600L28 604Q19 606 14 609Q8 614 7 621Q6 626 8 631T15 638Q19 641 25 641Q28 642 35 641Q87 635 140 634Z" />
<glyph unicode="Y" glyph-name="Y" horiz-adv-x="669" d="M123 604Q183 603 242 608Q246 608 248 608Q251 607 253 605T257 600Q258 597 258 594Q258 590 257 587Q257 584 255 581T250 577Q247 576 243 575L225 572Q224 572 220 572T213 570Q206 569 202 566Q200
564 199 562T197 556T198 550Q199 548 201 545Q241 486 284 429L363 329Q404 384 442 441L486 510Q494 522 496 529Q500 541 497 551Q494 562 484 568Q477 572 463 573L444 575Q439 575 437 577Q434 578 432 581T429 588Q428 591 429 595T431 602Q433 605 435 607T442
610Q444 611 449 610Q490 603 532 603Q579 603 625 610Q630 611 633 611Q637 611 640 609T646 604T649 596Q650 586 643 579Q640 575 635 573Q632 572 626 571L611 568Q589 564 580 559Q573 555 567 550Q563 545 557 537L384 290Q382 236 383 182Q384 129 386 77Q386
67 387 64Q388 56 390 51Q394 45 399 42Q404 39 412 38L458 31Q462 30 465 29Q468 28 470 26T473 19Q474 16 474 12Q474 7 473 4Q472 -1 469 -4Q466 -7 461 -8Q458 -8 453 -7Q396 4 337 2Q286 0 236 -12Q232 -13 229 -13Q226 -13 223 -10Q221 -9 219 -5Q218 -3
217 1Q216 5 216 9Q216 13 217 17Q219 21 222 23Q225 24 230 25L265 31Q275 33 280 35Q287 38 292 45Q296 50 298 59Q299 64 300 74Q303 123 304 173Q305 228 302 282Q246 361 185 437L107 530Q89 550 80 556Q72 562 64 565Q57 567 45 568L26 570Q22 570 20 571Q16
572 14 574T11 581Q10 583 10 587Q10 592 11 596Q12 601 15 604Q18 608 22 609Q25 610 31 609Q77 605 123 604Z" />
<glyph unicode="Z" glyph-name="Z" horiz-adv-x="646" d="M421 613Q449 613 476 613T522 613T557 613T582 614T592 614Q614 614 614 598Q614 590 601 574L167 47L364 46Q366 46 368 46Q479 46 541 74Q551 78 559 83T574 94T584 104T592 114T597 123T601 130T603
135Q609 145 618 145Q624 145 628 141T633 130Q633 127 631 121L588 8Q578 -19 561 -19Q556 -19 546 -15T515 -7T460 -2L114 3Q106 3 99 3Q83 3 71 3T52 2T44 1Q35 1 31 5T26 17Q26 29 43 41Q74 65 112 110L485 566L166 568Q165 568 163 568Q92 568 60 511Q60 510
57 504T53 497T48 493T40 490Q33 490 27 495T21 509Q21 514 24 522T38 558T61 629Q67 647 76 647Q81 647 88 639Q105 619 138 616Q190 613 421 613Z" />
<glyph unicode="a" glyph-name="a" horiz-adv-x="348" d="M285 226Q285 203 282 151T278 85Q278 68 286 56Q297 39 311 39Q315 39 321 41L340 46Q342 47 344 47Q354 47 354 30Q354 24 347 21L271 -9Q264 -12 260 -12Q252 -12 238 0T211 32Q182 17 166 10T128 -4T87
-11Q23 -11 23 54Q23 75 29 109Q32 129 53 139Q119 171 216 174L217 227Q217 230 217 240T218 256Q218 298 190 317Q165 334 144 334Q129 334 120 324T111 300Q111 297 111 295T111 291Q111 288 111 286T108 283T104 280T99 278T94 276L64 263Q58 261 55 261Q41
261 41 284Q41 324 87 345Q157 377 189 377Q212 377 240 357Q263 340 271 324T282 286Q285 258 285 226ZM131 33Q141 33 159 38Q192 47 211 65Q211 73 211 73Q214 109 214 145Q198 146 185 146Q145 146 118 128Q91 111 91 85Q91 81 92 75T96 58T108 40T131 33Z"
/>
<glyph unicode="b" glyph-name="b" horiz-adv-x="420" d="M179 352Q219 369 253 367Q286 365 315 347Q342 330 362 301Q383 272 390 240Q396 213 393 181Q390 154 380 124Q365 79 340 52Q320 31 289 16Q242 -7 193 -10Q153 -13 120 0Q103 7 97 7Q82 8 71 -2Q63
-9 63 -10Q60 -11 58 -12Q55 -12 52 -11T48 -8T45 -3V3Q46 4 47 8Q61 48 60 111L58 302Q57 426 52 509L51 521Q51 528 49 532Q47 538 43 542Q39 545 32 547L23 550Q20 551 19 552Q17 553 15 555Q13 558 12 563V570Q12 573 14 576Q15 579 18 581L24 584Q41 590 58
599Q85 613 109 632Q112 634 114 635T119 637Q124 637 129 633Q133 630 134 626V621V617Q130 591 127 559Q120 485 120 410Q120 365 122 320Q150 340 179 352ZM283 288Q264 310 244 319Q228 326 210 326Q194 326 176 320Q155 313 136 299Q131 296 129 293Q125 289
123 284Q121 278 121 265L126 90Q126 81 127 77Q128 69 132 64Q135 58 140 54T152 47Q178 35 205 31Q227 28 246 31Q267 35 283 47Q301 60 312 83Q321 102 325 128Q334 187 316 233Q305 262 283 288Z" />
<glyph unicode="c" glyph-name="c" horiz-adv-x="330" d="M24 186Q29 237 54 279Q80 323 122 348Q175 380 235 368Q257 364 281 353Q290 349 299 344Q305 341 308 338Q312 333 312 328Q313 323 312 317L307 307Q304 302 301 298T295 291Q291 287 288 285Q284 282
280 281Q275 279 271 280T262 284Q244 293 225 300Q199 309 171 313Q162 314 155 314Q147 313 140 310Q129 305 120 293Q109 278 102 255Q88 210 97 158Q102 129 113 107Q126 81 146 65Q170 46 202 41Q232 37 263 46Q277 50 290 57Q294 59 296 59Q299 60 302 59T308
55Q310 53 311 50Q314 44 312 38Q311 35 309 33T304 29Q297 24 290 20Q240 -10 191 -10T93 19Q60 38 44 64Q28 89 24 127Q21 156 24 186Z" />
<glyph unicode="d" glyph-name="d" horiz-adv-x="422" d="M78 297Q101 320 139 338Q165 351 196 360Q207 363 214 363T233 360L289 346Q290 407 288 469L286 519Q286 529 285 533Q283 541 279 546Q274 551 267 553Q262 554 253 552L243 550Q239 549 236 549Q232
550 230 552T225 557Q224 560 224 564Q224 573 229 579Q231 582 235 583Q237 585 242 586Q268 593 292 605Q320 619 345 639Q348 642 350 642Q353 644 357 643Q360 643 362 640Q365 639 367 636Q372 630 374 625Q375 622 375 619Q375 617 374 613Q363 547 358 475Q355
420 350 185Q349 134 351 100Q353 74 356 48Q357 42 358 39Q360 35 363 32T371 28Q374 28 380 29L403 33Q407 34 409 33Q412 32 413 30Q415 28 415 25V19Q414 13 412 9L408 5Q406 4 403 3L310 -29Q306 -31 303 -30Q299 -30 296 -28Q294 -26 293 -22Q292 -20 291
-15Q289 -3 288 10Q287 28 287 46Q275 36 262 28Q213 -4 170 -8Q141 -10 115 0T69 31Q40 62 30 110Q21 152 29 198Q40 259 78 297ZM167 317Q145 313 127 300Q104 283 92 257Q78 226 82 184Q88 122 123 81Q139 61 160 51Q182 40 207 40Q230 40 253 51Q272 60 288
74Q289 96 288 138T288 223Q288 245 289 267V279Q288 285 285 289T276 297Q272 299 265 301L240 308Q217 314 204 317Q184 320 167 317Z" />
<glyph unicode="e" glyph-name="e" horiz-adv-x="355" d="M71 304Q103 345 150 364Q166 370 180 371T212 368Q252 359 281 330Q298 313 309 291Q312 285 314 282Q316 278 320 275L330 267Q333 265 334 262Q336 259 336 256T335 251T332 247T327 244Q325 244 322
243L262 231L95 197Q93 160 103 127Q111 103 124 85Q139 64 159 53Q185 38 217 40Q247 41 275 56Q287 62 297 70Q301 73 303 74Q306 76 309 76T316 74T322 69T325 63T326 55T322 48Q321 46 317 43Q297 27 274 15Q227 -9 180 -10Q127 -10 88 19Q51 47 35 94Q21 136
26 186Q33 255 71 304ZM211 315Q199 324 186 328Q172 332 159 330Q141 327 127 314Q116 303 109 286Q103 273 100 256Q97 240 96 224L230 253Q236 254 239 256Q244 259 246 263T246 273Q245 277 242 282Q229 302 211 315Z" />
<glyph unicode="f" glyph-name="f" horiz-adv-x="309" d="M106 481Q116 518 133 543Q153 572 198 601Q242 629 276 639Q302 646 328 645Q360 643 388 629Q395 625 399 621Q404 616 405 609Q406 603 404 596Q403 590 399 583T390 571Q384 565 378 562Q371 560 363
561Q358 562 349 566Q317 581 289 587Q269 591 253 590Q235 588 220 578Q201 566 190 541Q180 519 171 475Q163 437 162 396L161 365L285 368Q289 368 292 367T297 364Q299 361 300 358V351V336Q300 332 299 330Q299 328 297 326T292 323H286L159 328Q157 266 158
204T161 81Q162 64 164 53Q165 48 167 45Q169 40 172 38T180 34Q183 33 189 33L227 32Q233 32 235 31Q240 29 242 26T246 19Q247 14 246 10T243 3T238 -2T231 -5H224Q177 -1 130 0Q85 1 41 -2H35Q33 -2 30 0Q25 2 23 8Q21 12 21 15Q21 19 23 22T28 28Q30 29 35
30L50 33Q62 35 69 39Q77 44 82 53Q87 61 88 72Q89 78 90 92Q93 145 94 199Q95 262 92 325Q77 329 53 329H39H36Q34 330 33 331T31 334Q30 335 30 337Q29 342 29 348T30 359Q30 361 31 362Q32 364 34 365Q35 366 37 366H41H93L95 403Q97 449 106 481Z" />
<glyph unicode="g" glyph-name="g" horiz-adv-x="394" d="M32 216Q28 253 44 288Q59 321 89 345Q124 373 168 379Q221 386 268 360Q278 354 281 353T288 352Q290 352 295 353Q311 356 328 357T363 358Q366 358 368 357T371 354T372 350Q373 348 373 345Q374 338
374 330Q374 320 371 311L370 306Q369 302 368 301Q366 298 363 298Q362 297 361 297Q360 298 358 298Q349 300 340 301Q330 302 319 301Q326 287 330 272Q338 243 333 213Q328 181 310 155Q292 130 263 112Q248 103 205 84Q170 69 145 54Q138 50 137 49Q135 47
133 46Q132 43 132 41Q132 38 134 36T139 33T150 31Q176 28 206 26Q263 23 279 20Q310 14 331 0Q355 -16 365 -42Q372 -59 372 -79T366 -117Q354 -150 319 -178Q291 -200 257 -213Q209 -232 147 -233Q97 -234 66 -218Q44 -206 31 -187Q18 -166 18 -142Q18 -116
32 -91Q45 -69 67 -50Q83 -36 102 -25Q93 -18 85 -10Q74 2 67 14Q63 22 60 31Q59 34 59 36V41Q60 44 62 46Q63 47 66 49Q76 55 87 60Q91 62 110 70Q124 76 136 82Q121 89 108 98Q76 119 57 149Q36 180 32 216ZM129 331Q113 322 103 304Q93 289 90 269Q85 239 94
211Q101 188 118 169Q132 152 154 138T201 115Q221 120 236 133Q259 153 268 187Q275 212 272 237Q268 274 244 302Q218 332 183 339Q153 345 129 331ZM102 -59Q87 -72 80 -84Q70 -99 70 -115Q70 -132 81 -147Q90 -160 107 -168Q142 -185 197 -180Q242 -176 277
-159Q308 -144 320 -122Q329 -105 326 -87Q323 -73 313 -62Q298 -46 274 -41Q263 -39 225 -38Q206 -38 186 -36Q165 -34 141 -31Q118 -45 102 -59Z" />
<glyph unicode="h" glyph-name="h" horiz-adv-x="428" d="M167 330Q200 348 228 356Q267 367 300 359Q323 354 340 340T366 305Q373 287 375 257Q375 254 377 208Q379 160 377 112Q376 86 374 61Q373 54 374 50Q374 44 377 39T385 31Q388 29 395 26L403 23Q406
22 407 21Q409 20 410 18T412 13T412 8Q411 4 408 2Q407 1 405 0H401Q377 0 353 -1Q309 -3 266 -8H260Q258 -7 256 -5T253 0T252 6V10Q252 12 253 13T255 17Q257 17 259 18L277 23Q285 25 289 27Q294 30 298 34T305 44Q307 48 308 56Q316 101 315 155Q314 207 312
234Q310 257 305 271Q297 290 282 301Q270 310 253 313Q240 315 222 314Q189 312 166 303Q151 297 139 287L135 211Q132 144 132 77V62Q133 53 136 47Q139 40 146 36Q151 33 160 31L179 27Q183 26 185 25Q189 24 191 22Q194 19 194 16T194 10T191 4T185 1Q181 -1
172 0Q132 2 91 1Q58 0 25 -4H20Q17 -3 15 -1Q14 1 13 4V9Q13 12 14 14Q14 18 15 20L19 24Q21 25 24 26L36 30Q46 33 51 37Q58 42 61 51Q64 57 65 67Q65 71 66 84Q70 184 72 285Q74 398 73 511Q73 524 72 529Q71 539 67 546Q63 554 54 557Q47 559 36 558L28 557H22Q19
557 17 558T13 563Q12 565 11 568T10 575Q10 578 11 581T16 586L22 589L70 610Q97 623 122 638Q129 642 134 643Q140 644 146 641Q150 639 153 637Q156 634 157 631T159 623Q158 620 157 615Q152 597 150 571Q146 515 143 459Q140 386 139 313Q153 322 167 330Z"
/>
<glyph unicode="i" glyph-name="i" horiz-adv-x="237" d="M128 621Q148 621 162 608T176 574Q176 555 162 541T129 527T96 540T82 573T95 606T128 621ZM88 355Q113 370 134 389Q137 392 139 393Q142 394 145 394T150 392Q153 390 155 388Q159 383 161 378V372Q160
370 159 366Q150 341 147 304Q141 236 142 168Q143 124 146 80Q147 69 148 64Q149 55 152 50Q156 42 164 39Q169 37 179 37H200Q206 37 209 36Q213 35 216 32T221 25T222 16Q222 12 220 9T216 4T209 1H202Q158 2 115 0Q74 -2 34 -6H29Q26 -6 24 -5Q19 -2 17 3Q15
7 15 11T16 19Q18 22 21 24T29 27L43 30Q50 32 54 34Q60 36 63 41T67 52Q68 56 68 64Q70 110 70 157Q70 208 69 258Q69 267 68 272Q67 280 63 285Q59 291 52 293Q47 295 38 295H31H26Q23 296 21 297Q17 300 15 306Q14 310 14 313Q15 317 16 320T21 325Q23 327 28
328Q60 338 88 355Z" />
<glyph unicode="j" glyph-name="j" horiz-adv-x="252" d="M128 621Q148 621 162 608T176 574Q176 555 162 541T129 527T96 540T82 573T95 606T128 621ZM111 361Q136 376 157 395Q160 398 162 399Q165 400 168 400T174 400T179 395Q182 391 183 385Q183 381 181
375Q172 347 171 305Q169 236 169 167Q169 120 170 72Q172 42 172 2T164 -67Q157 -98 141 -120Q131 -134 108 -154Q84 -175 74 -188Q66 -198 60 -210Q57 -215 56 -217Q54 -221 50 -223Q44 -228 35 -227Q28 -226 23 -221Q21 -218 20 -215Q19 -212 19 -208Q18 -193
22 -178Q26 -164 36 -151Q40 -145 49 -134T62 -119Q79 -97 88 -69Q97 -42 100 -8Q102 12 103 64Q104 107 103 150Q102 196 99 242Q98 263 98 264Q96 277 92 285Q87 296 77 300Q72 301 66 302Q62 302 55 301L46 300Q42 300 40 300Q37 300 35 302T32 307Q30 309 30
312Q30 315 30 318Q31 322 32 324T37 329Q39 330 43 331Q79 342 111 361Z" />
<glyph unicode="k" glyph-name="k" horiz-adv-x="458" d="M83 329Q82 398 79 467Q78 499 74 521Q73 530 71 535Q68 542 64 546Q59 551 52 553Q47 553 38 552L32 551Q28 550 26 550Q23 551 20 552T16 556T14 562Q14 566 16 571Q18 575 22 578Q30 585 54 595Q87
609 88 609Q113 620 132 636Q136 639 139 640Q142 642 146 642T154 639Q157 637 159 633Q163 628 163 622Q164 617 162 610Q147 547 146 451L144 218Q173 235 199 255Q219 270 237 288Q248 299 249 299Q256 306 257 312Q259 316 259 320T256 327T249 333Q247 334
242 336L236 338L232 340L230 343Q228 344 228 346V350Q228 353 229 355T232 358T237 361H242Q277 359 313 360Q354 361 394 367Q399 368 402 367Q406 367 408 365T413 358Q415 355 415 351V344Q414 340 412 338T406 333Q404 332 399 331Q351 321 289 282L205 229Q259
173 316 121Q359 82 403 46Q411 40 413 38Q417 35 424 34L438 31Q442 30 443 29Q446 28 448 25Q449 23 449 20Q450 17 450 14V9Q449 6 448 4T443 1H438Q403 3 367 2Q327 1 287 -2H282Q279 -1 278 0T275 5Q274 7 274 10V15L276 19Q277 21 279 22T284 24L297 27Q301
28 303 29Q305 31 305 35Q306 37 304 40Q303 42 300 45L242 105Q195 152 145 197V90Q145 66 148 51Q149 46 150 43Q152 40 155 37T162 33Q165 32 170 31L189 27Q193 26 195 25Q198 23 199 20T200 13Q199 10 199 7Q199 5 198 3T196 0T192 -3H188Q156 -1 124 -2Q81
-3 38 -9H33Q30 -9 28 -7T25 -2Q24 0 23 3T22 9T23 14Q24 17 27 19Q28 20 32 21L52 27Q60 29 64 32Q70 36 74 42Q77 47 78 55Q79 59 79 68Q85 198 83 329Z" />
<glyph unicode="l" glyph-name="l" horiz-adv-x="253" d="M94 609Q121 623 147 640Q152 644 156 645Q161 647 166 647T175 646Q180 644 183 641T186 632Q187 629 185 623Q175 588 172 535L166 429Q160 303 159 179V88Q159 74 160 69Q160 58 164 50Q168 41 177
36Q183 33 195 31L220 27Q225 26 227 25Q230 23 232 20T234 13Q235 10 234 6L232 0Q231 -2 229 -4T223 -6Q221 -7 217 -6Q172 0 127 1Q80 2 34 -2H28Q24 -2 22 0T18 5T16 11Q16 17 19 21Q21 23 23 24T28 26L40 30Q57 36 65 42Q76 50 81 64Q85 75 86 91Q87 96 88
119Q93 220 95 322Q96 395 96 468Q96 498 93 519Q92 528 90 532Q87 540 83 544Q78 549 71 551Q66 552 57 552H46Q42 552 40 553Q37 554 35 556T32 561T31 567V573Q31 576 33 579Q34 582 37 583Q38 585 42 586Q69 596 94 609Z" />
<glyph unicode="m" glyph-name="m" horiz-adv-x="724" d="M199 331Q222 343 248 353Q285 367 309 366Q335 364 358 348T395 306Q412 317 429 325Q455 337 480 344Q513 352 544 352Q566 352 583 346Q602 339 615 325Q624 314 630 300Q634 288 637 271Q641 247 642
210Q643 187 642 162L640 113Q639 84 641 59Q642 52 643 47Q645 41 649 37T658 31Q662 30 670 29L697 26Q701 26 702 25Q705 24 707 22T710 17V11Q710 8 709 6Q708 3 706 2T701 -1H696Q652 1 608 0Q569 -1 530 -3H525Q522 -2 521 -1T518 3Q516 5 516 8T516 13Q516
16 517 18T521 23Q523 24 526 25L535 28Q546 32 551 35Q558 40 563 49Q566 55 568 65Q570 72 571 83Q574 107 574 133Q573 209 564 250Q561 262 557 271Q552 281 544 288Q535 296 523 300Q513 304 499 305Q478 307 455 303Q425 298 400 284V230Q399 189 400 148L402
67Q402 58 403 54Q404 46 408 41Q412 35 418 32Q422 30 431 29L447 27Q450 27 452 26T455 23Q457 21 457 18V13Q457 10 456 8Q455 5 454 3Q452 0 449 0Q447 -1 444 -1Q408 0 372 -1Q327 -2 283 -4H278Q275 -3 273 -2T270 2T268 7T267 13Q268 17 269 19T273 24Q275
25 279 26L290 29Q302 32 308 36Q317 41 322 50Q326 58 328 68Q329 75 330 88Q332 120 332 153Q332 184 330 215Q329 238 328 243Q327 260 323 271Q319 283 311 292T292 306Q273 315 245 312Q222 309 199 300Q175 290 155 275L154 78V63Q155 55 158 49Q162 42 168
39Q173 36 182 34L206 29Q210 28 213 27Q216 25 217 22Q219 19 219 15Q219 12 218 8Q217 5 216 3Q215 0 213 -1T208 -4H202Q157 0 112 0Q76 0 40 -2H32Q28 -1 25 2T21 9T21 17Q22 22 25 26Q28 29 34 31L44 35Q55 40 61 44Q69 49 74 57Q81 69 83 94Q86 125 86 156Q87
203 82 249Q81 261 79 267Q77 277 73 284Q67 292 59 296Q53 299 41 300L32 301Q29 301 27 302T23 305T20 309T19 314V319Q20 322 21 324T25 328Q27 329 30 330Q55 336 79 346Q105 356 129 370Q134 373 137 373Q141 374 145 373Q150 371 153 367Q154 365 155 362V357L157
306Q177 320 199 331Z" />
<glyph unicode="n" glyph-name="n" horiz-adv-x="430" d="M179 324Q207 340 234 349Q258 357 279 357Q304 358 324 348Q351 335 364 307Q373 287 374 249Q376 197 376 145V73V59Q376 51 378 46Q380 39 385 35Q389 31 397 28L402 26Q405 25 407 23Q410 22 411 19Q414
15 413 8Q413 5 412 2L408 -2Q406 -4 403 -4Q401 -5 397 -4Q365 1 332 1T267 -6Q264 -7 262 -7Q259 -7 256 -6Q251 -5 247 -1Q244 2 243 5Q241 8 241 12Q242 15 244 18Q246 20 250 22L278 36Q286 40 290 43Q296 48 299 54Q304 62 306 81Q310 120 311 160Q312 197
309 234Q308 251 305 261Q300 274 291 283T268 298Q257 302 242 303Q211 305 175 291Q157 284 141 274L136 78V62Q137 53 141 46Q146 39 153 35Q159 32 169 30L194 25Q199 24 201 23Q204 21 206 17Q207 14 206 10Q206 6 204 3Q201 -2 197 -4Q195 -5 192 -5H187Q171
-3 154 -2Q118 0 63 -1Q47 -1 29 -2H24Q22 -1 20 1T17 5T16 10V15Q16 18 17 20T20 24Q22 25 25 26L34 29Q43 32 47 35Q53 39 57 45Q60 51 61 59Q62 63 64 73Q71 115 73 157Q75 188 74 220Q73 244 70 261T61 286Q57 291 51 294Q46 296 38 298L29 300Q26 301 24 301Q22
302 21 304Q18 307 17 313Q16 316 16 319T17 325Q19 328 21 329T27 331Q49 334 70 343Q94 353 115 369Q120 373 123 374Q128 376 132 374T138 367Q140 364 140 358L143 300Q160 313 179 324Z" />
<glyph unicode="o" glyph-name="o" horiz-adv-x="428" d="M173 372Q214 382 256 371Q296 360 331 333Q367 304 387 265Q408 225 408 180Q408 123 375 73Q359 49 339 32Q314 11 282 0Q256 -9 229 -11Q183 -14 141 4Q99 21 68 56Q20 110 20 179Q20 218 38 256Q55
292 84 321Q124 360 173 372ZM125 280Q101 236 102 182Q103 126 134 81Q148 60 167 47Q188 32 211 28Q249 22 281 44Q300 57 312 77Q333 111 334 162Q335 195 327 223Q318 258 296 284Q272 313 241 325Q223 332 206 332Q187 333 171 326Q144 314 125 280Z" />
<glyph unicode="p" glyph-name="p" horiz-adv-x="418" d="M164 338Q195 354 215 361Q245 372 271 370T320 355Q342 343 359 321Q390 281 398 221Q409 139 371 79Q355 54 332 38Q313 25 280 13Q263 7 243 1Q227 -4 214 -3Q202 -3 184 1Q174 3 164 6Q149 11 134
18V-146Q134 -157 135 -163Q137 -172 143 -178T158 -188Q164 -190 175 -190L198 -191Q203 -191 205 -192Q209 -193 211 -196T214 -203Q215 -206 214 -210T212 -217Q210 -221 207 -223T201 -227H193Q151 -224 109 -226Q68 -228 27 -233H22Q19 -233 17 -232T14 -227Q13
-225 12 -222Q11 -218 11 -215T12 -209T16 -204Q18 -202 22 -201L33 -198Q40 -196 43 -195Q48 -192 51 -188T56 -179Q58 -175 59 -169Q63 -147 65 -114Q70 -20 70 75T67 264Q67 274 66 279Q65 287 61 292Q57 299 50 301Q44 302 35 301L28 300Q24 299 22 300Q19
301 17 303Q15 306 15 309Q14 312 15 315Q16 321 19 326Q20 328 22 330Q24 331 27 333Q35 337 44 342Q82 361 92 370Q100 377 106 386Q108 389 109 390Q111 392 113 393Q115 395 117 395T122 394T126 391T129 387Q130 384 131 377T133 362Q135 343 136 323L164
338ZM278 301Q265 313 249 321Q236 327 226 328Q216 328 202 323Q177 314 153 304L137 297L135 69L162 59Q214 39 236 38Q257 37 275 44T307 66Q329 90 335 127Q339 158 332 195Q326 227 313 252Q299 282 278 301Z" />
<glyph unicode="q" glyph-name="q" horiz-adv-x="416" d="M82 323Q116 354 162 368Q217 385 268 371Q290 365 310 353Q315 350 317 349Q321 348 325 348T333 350Q335 352 339 355L360 373Q365 377 368 379H374Q376 379 378 378Q382 376 383 371Q384 367 384 362Q383
351 378 335Q362 286 360 212Q358 143 358 73Q359 -39 366 -151Q367 -168 370 -175Q372 -181 377 -185Q380 -188 387 -191L391 -193Q395 -195 396 -196Q399 -198 400 -201T402 -208Q402 -211 401 -214Q399 -221 395 -224Q392 -226 389 -227H383Q352 -227 321 -228Q275
-230 229 -234H222Q219 -234 217 -232T212 -227T210 -221Q209 -213 215 -207Q218 -204 222 -203Q224 -202 229 -201L256 -196Q268 -194 275 -190Q283 -184 286 -174Q289 -167 290 -155L291 -135Q293 -92 294 -49Q295 -8 294 33Q276 23 258 15Q207 -8 168 -6Q128
-4 93 22Q51 53 32 106T23 215Q35 280 82 323ZM210 333Q168 339 137 318Q113 302 101 272Q92 248 91 214Q89 143 115 94Q130 65 153 49Q178 32 209 31Q231 31 253 39T294 62Q296 118 297 174V256Q297 277 292 287Q289 294 283 300Q279 305 271 310Q242 329 210
333Z" />
<glyph unicode="r" glyph-name="r" horiz-adv-x="326" d="M242 305Q234 311 222 311Q213 311 202 307Q186 301 168 288Q160 282 156 276Q153 270 153 259Q151 220 151 181Q150 131 152 81Q152 69 153 64Q155 54 159 48Q164 41 172 38Q178 36 189 36L235 38Q240
38 243 37Q247 36 249 32Q251 29 252 24Q252 21 251 16Q250 12 249 9T246 4Q243 1 240 0H233Q176 2 119 1Q81 0 43 -2H37Q34 -1 32 1T29 5L27 11Q26 14 27 17Q27 20 28 22T32 26Q34 28 37 29L45 32Q53 35 58 38Q64 42 68 47Q72 53 74 60Q75 65 76 74Q80 110 82
146Q85 204 81 261Q80 275 79 280T75 289Q73 293 69 296Q63 300 52 301H37H32Q30 301 28 302Q24 304 22 309Q20 316 23 322Q25 324 27 327L33 330L73 352Q101 368 128 386Q134 390 137 391Q143 393 147 391Q152 389 154 384Q156 381 156 374V319L249 376Q254 379
257 380Q261 381 265 381Q272 382 282 378Q291 375 298 369Q306 363 311 354Q315 346 316 336Q317 325 312 315T298 298Q287 289 274 286Q270 285 267 285Q263 284 260 286Q256 287 254 290Q253 291 250 296T242 305Z" />
<glyph unicode="s" glyph-name="s" horiz-adv-x="308" d="M67 316Q86 339 116 353Q145 366 178 367Q196 367 220 364Q234 362 248 359Q253 358 256 356T261 351T264 343Q264 341 265 335L273 287Q274 283 274 281Q274 278 273 275T270 270T264 268T258 268T253
271T245 280Q234 296 218 308Q198 323 177 329Q166 332 156 332Q145 332 136 327Q123 321 116 307Q106 288 113 268Q118 255 130 245Q139 238 154 231L202 211Q227 199 246 183Q284 149 289 107Q292 79 280 55L273 43Q270 38 264 33Q237 10 203 -1Q157 -17 107
-10Q78 -6 50 5Q45 7 43 8Q39 10 37 13T35 20Q34 23 35 28Q37 42 36 56Q35 71 31 86Q29 95 29 99Q30 103 32 105T37 109T43 111T50 108T58 98L72 77Q89 54 107 43Q127 31 152 28Q175 25 193 32Q203 35 211 42T223 58Q230 74 226 91Q222 107 209 121Q190 142 153
159L95 185Q93 186 92 187Q76 197 66 209Q54 222 49 238Q43 258 48 279Q53 299 67 316Z" />
<glyph unicode="t" glyph-name="t" horiz-adv-x="264" d="M125 226Q123 166 125 106Q126 84 131 72Q139 55 156 48Q171 41 190 43Q205 44 224 51L234 55Q238 57 240 57Q244 58 247 57T252 52Q253 50 254 46Q255 43 255 40L253 34Q252 31 249 29Q247 28 244 26Q205
5 171 -3Q149 -8 131 -7Q110 -6 93 4Q80 12 71 25Q62 37 58 52Q53 72 54 113L60 317H25Q19 317 16 318Q14 319 13 321T12 325T11 329T13 333Q15 335 20 338Q40 350 59 364Q89 388 113 418Q118 424 120 426T125 430Q128 431 130 431T135 430T140 425Q141 423 141
420V414L136 365Q158 363 181 363T227 364Q233 364 236 363Q240 362 243 359T246 351Q247 348 247 342V340Q247 334 246 331Q245 326 242 323T233 318H224L131 323Q127 275 125 226Z" />
<glyph unicode="u" glyph-name="u" horiz-adv-x="423" d="M128 255Q125 211 125 177Q125 121 129 100Q133 81 142 69Q149 60 160 55Q170 51 183 50Q208 48 239 60Q267 70 293 89L295 186L297 249Q298 263 296 270Q295 282 289 290Q283 299 273 303Q266 306 252
308L244 309Q241 309 240 310Q238 311 237 312T234 317V321Q234 324 235 327Q235 330 237 332Q238 334 241 335Q242 336 246 337Q273 341 300 347Q328 353 355 360Q360 361 363 361Q368 361 370 358T374 350Q375 347 374 342Q364 244 361 179Q359 135 361 99Q362
80 364 62Q365 56 366 52Q368 47 371 44T380 40H390L403 41H407Q409 41 410 40T412 37Q413 35 413 33Q413 30 413 26T411 20Q409 17 406 15Q404 13 400 12L362 0L324 -14Q321 -15 319 -16Q316 -16 314 -16T309 -13T306 -8Q299 8 295 25Q292 39 291 53L186 5Q168
-3 157 -5Q142 -9 127 -6Q104 -2 88 14Q69 32 63 63Q60 81 59 119V173Q59 203 61 233Q62 251 61 263Q60 270 59 275Q58 281 55 285Q51 290 46 292Q41 293 34 292L27 291H22Q19 291 17 292T14 295T11 300Q9 306 11 310Q12 313 14 315Q15 316 18 318L63 345Q87 359
111 371Q117 374 121 375Q127 376 132 373Q136 371 138 366V362V357L134 324Q131 293 128 255Z" />
<glyph unicode="v" glyph-name="v" horiz-adv-x="381" d="M89 208L46 312L43 318Q41 321 39 323Q36 326 28 329L19 333Q13 336 10 339Q5 343 4 348Q3 351 4 354Q5 358 7 360T13 363Q15 364 19 364Q50 364 81 365Q122 366 163 369H172Q176 368 180 366T185 359T187
350Q187 347 186 344T182 339T175 336Q173 335 169 335L152 334Q147 334 144 333Q140 331 138 328T135 320Q135 317 136 312Q142 279 152 246Q162 214 192 135L205 101L219 130Q256 208 273 258Q278 272 282 287Q285 297 286 303Q287 312 285 319Q282 327 274 332Q269
335 259 337L248 339Q245 340 243 340Q241 341 239 343T237 348Q236 350 236 353Q236 357 237 361Q239 365 241 367Q244 370 248 371Q251 372 256 371Q281 368 307 368Q331 368 355 371Q363 372 367 371Q370 370 372 368T376 363T377 357T375 351Q374 348 368 342L362
336Q347 321 341 314Q333 304 326 288L301 234Q254 134 242 106L218 49Q205 18 197 -8Q196 -12 195 -14L191 -18Q186 -22 179 -22Q176 -22 173 -21Q170 -21 168 -19T164 -15T162 -9Q159 5 155 18Q134 96 89 208Z" />
<glyph unicode="w" glyph-name="w" horiz-adv-x="593" d="M35 369L95 366Q128 365 156 370Q162 371 165 371Q169 371 172 369T178 362T179 353Q178 347 174 344Q172 342 169 341Q167 341 164 340L155 338Q149 337 145 335Q141 332 138 328T135 318Q134 314 135
308Q138 279 151 238L191 112L279 284L268 309Q262 322 257 327Q253 331 248 333Q244 334 237 335L230 336Q227 336 225 337Q222 338 220 340Q216 343 215 349Q214 353 215 356T220 362T226 366H234Q261 364 289 364Q333 364 376 371Q380 372 383 372Q386 371 389
370T394 365T397 359T397 353T394 347T389 343Q387 342 383 341L368 337L359 334Q354 332 351 328Q348 325 347 320Q347 316 348 310Q357 269 368 228Q385 165 408 103Q423 140 449 190Q471 232 479 252T493 292Q496 302 497 306Q499 315 498 320Q496 328 490 333Q488
335 484 336Q482 337 477 338L467 340Q463 341 461 342Q458 344 457 346T455 353Q455 356 456 359T459 364Q460 367 462 368T468 370H474Q495 367 517 367Q543 366 568 369Q577 370 581 368Q584 367 586 365T590 360T590 353Q590 350 588 347Q585 343 578 338L572
334Q560 326 553 317Q549 311 540 295L450 121L418 56Q403 25 398 2Q397 -3 396 -5Q395 -9 393 -11T387 -15T379 -16Q371 -15 367 -9Q365 -6 364 -2Q363 0 362 5Q358 29 351 58Q336 120 316 181Q306 213 294 244Q259 176 227 107L180 1Q178 -3 177 -6Q175 -9 172
-11Q166 -16 158 -15Q154 -15 150 -13T144 -7T141 1Q140 4 140 10Q140 34 131 67Q114 131 94 193L67 271Q55 303 54 306Q49 314 42 320Q37 324 26 329L19 332L13 335Q9 337 7 340Q3 346 3 353Q3 357 4 360T8 365T15 368Q18 369 22 369H35Z" />
<glyph unicode="x" glyph-name="x" horiz-adv-x="396" d="M235 349Q235 353 236 357T242 363T250 367Q253 367 259 366Q286 362 314 362Q339 362 363 365Q367 366 370 365Q373 365 376 364Q382 361 384 354Q385 350 385 347T382 340T376 336Q374 335 369 333Q359
330 351 324Q344 319 335 310L275 248L233 201Q254 159 277 119Q294 90 313 61Q322 47 327 43T338 37Q342 36 349 35L367 33Q372 32 375 31Q380 30 382 27T386 18Q386 14 385 10Q383 3 377 0Q374 -2 371 -2H364Q326 2 288 2Q257 2 227 -1H220Q216 0 213 2T209 7T207
15Q207 21 211 25Q214 29 220 30L229 32Q231 32 233 33T236 36Q238 38 238 41Q239 43 238 46T234 56L211 102L188 146Q167 126 149 104Q135 87 123 69L117 60Q113 54 113 50Q112 47 113 45T115 40T120 37Q122 36 125 35L140 31Q145 30 147 28Q150 27 152 24T154
17T154 9Q152 3 147 0Q144 -2 141 -2H135Q106 0 77 0Q52 0 27 -2H21Q18 -1 16 1T13 6T12 12Q12 16 13 20T16 27Q19 32 25 35Q27 36 36 38L46 43Q50 46 55 51L171 181Q156 210 140 237Q126 261 110 284Q93 309 87 315Q80 321 71 325Q64 327 52 328L39 329Q34 329
32 330Q29 331 27 333T23 340Q22 343 22 347T24 354Q25 358 28 360T35 364H42Q76 363 111 363Q144 363 177 365H185Q188 364 191 362T195 356T197 348Q197 343 195 340T188 335L178 333L174 331Q172 329 171 327T170 323Q171 321 171 318L175 310L191 275L216 227L268
291Q274 298 276 301Q280 308 279 314Q279 321 274 325Q272 327 268 328Q266 329 262 330L253 332Q249 333 247 334Q243 335 241 337Q235 342 235 349Z" />
<glyph unicode="y" glyph-name="y" horiz-adv-x="404" d="M88 366Q122 367 156 371H162Q165 371 167 369T171 365Q172 362 172 359T173 354Q173 351 172 349T167 345Q165 344 162 343L158 342Q150 340 146 338Q140 334 138 328Q135 323 135 316Q136 311 137 303Q144
265 153 228Q172 151 201 78Q235 133 263 192Q280 228 294 265Q300 280 301 286Q305 299 303 308Q301 320 292 327Q286 333 272 336L256 340Q251 341 249 343Q245 345 243 348T241 355T242 363Q243 366 245 368Q247 371 249 372T255 374Q257 374 261 373Q289 367
318 366Q350 365 381 369Q386 370 389 369Q392 369 395 366T399 359Q400 356 400 352Q400 345 396 340L392 336Q390 336 386 334Q372 329 362 317Q354 308 346 291Q312 220 233 70Q188 -15 165 -68Q141 -122 123 -176Q118 -190 115 -202Q114 -207 113 -210Q111
-214 109 -216Q106 -219 102 -220Q99 -221 94 -221H65Q49 -221 34 -222Q22 -223 16 -221Q11 -219 8 -216T4 -208Q3 -204 4 -201T8 -195Q11 -191 20 -187Q58 -169 86 -136Q105 -112 129 -64L154 -13Q137 63 114 138Q90 216 61 292Q54 310 49 317Q45 323 40 327Q36
330 28 334L16 340Q10 343 7 346Q4 351 4 356Q4 359 5 361T8 366T13 368H19Q53 365 88 366Z" />
<glyph unicode="z" glyph-name="z" horiz-adv-x="425" d="M140 36L263 35Q266 35 268 35Q324 35 351 62Q365 77 373 105Q376 117 387 117Q393 117 397 113T402 101Q402 97 400 92T393 66T380 11Q377 -5 364 -5Q362 -5 356 -4T335 -1T301 0H128Q93 0 71 -3T47 -6Q36
-6 30 -1T24 13Q24 23 38 37Q172 171 284 325Q254 327 224 327Q148 327 103 317Q66 309 50 280Q45 270 37 270Q31 270 26 274T21 284Q21 287 23 292T31 314T43 356Q48 373 59 373Q61 373 80 367T131 361L303 360Q306 360 309 360Q330 360 344 361T366 363T376 364Q385
364 390 360T395 349T385 329Q351 287 270 195T140 36Z" />
</font>
</defs>
</svg>
