<?xml version="1.0" standalone="no"?> <!DOCTYPE svg PUBLIC "-//W3C//DTD SVG 1.0//EN" "http://www.w3.org/TR/2001/REC-SVG-20010904/DTD/svg10.dtd" > <svg xmlns="http://www.w3.org/2000/svg" width="100%" height="100%">
<defs >
<font id="league_gothic" horiz-adv-x="276" ><font-face
    font-family="LeagueGothic"
    units-per-em="1000"
    panose-1="0 0 0 0 0 0 0 0 0 0"
    ascent="930"
    descent="-250"
    alphabetic="0" />
<missing-glyph horiz-adv-x="154" />
<glyph unicode=" " glyph-name="space" horiz-adv-x="154" />
<glyph unicode="!" glyph-name="exclam" horiz-adv-x="189" d="M42 0V111H147V0H42ZM63 198L36 735H153L126 198H63Z" />
<glyph unicode="&quot;" glyph-name="quotedbl" horiz-adv-x="161" d="M118 466H43L28 735H133L118 466Z" />
<glyph unicode="#" glyph-name="numbersign" horiz-adv-x="602" d="M24 214L37 309H134L152 435H56L69 530H165L193 735H289L261 530H388L416 735H512L484 530H578L565 435H471L453 309H546L533 214H440L411 0H315L344 214H217L188 0H92L121 214H24ZM248 435L230
309H357L375 435H248Z" />
<glyph unicode="$" glyph-name="dollar" horiz-adv-x="338" d="M140 795H200V734Q298 723 315 596L221 584Q218 612 208 629T176 645Q137 644 135 566Q135 552 139 537T148 510T164 481T180 455T200 427T219 401Q222 396 235 378T253 352T269 327T286 299T299
272T310 242T317 213T320 181Q318 16 200 1V-105H140V3Q25 23 18 175L112 181Q118 90 175 90Q218 90 220 180Q220 194 216 209T207 236T191 265T174 291T155 318T137 343Q104 388 88 412T54 481T35 564Q37 707 140 731V795Z" />
<glyph unicode="%" glyph-name="percent" horiz-adv-x="489" d="M144 0H77L347 735H411L144 0ZM122 658Q123 685 105 685Q96 685 92 679T87 665V658V445Q85 418 105 418Q113 418 117 425T122 438V445V658ZM403 290Q404 317 386 317Q377 317 373 311T368 297V290V77Q366
49 386 49Q394 49 398 56T402 70L403 77V290ZM182 445Q182 442 182 436T177 415T166 389T143 369T105 359Q70 359 51 380T29 424L27 445V658Q27 661 27 667T32 687T43 713T67 734T105 743Q139 743 158 722T180 679L182 658V445ZM463 77Q463 74 463 68T458 48T447
22T424 1T386 -8Q351 -8 332 13T310 56L308 77V290Q308 293 308 299T313 320T324 346T348 366T386 376Q420 376 439 355T461 312L463 290V77Z" />
<glyph unicode="&amp;" glyph-name="ampersand" horiz-adv-x="417" d="M24 154Q24 210 45 258T107 367Q55 477 55 583Q55 586 55 592T57 614T64 646T78 679T101 711T137 734T187 743Q225 743 252 727T291 687T309 640T316 600V583Q316 504 216 371Q253 286 288
232Q304 279 311 335L397 319Q389 215 352 144Q379 113 397 107V-8Q386 -8 355 10T295 60Q235 -8 172 -8T67 39T24 154ZM238 128Q195 196 153 272Q150 267 146 258T135 220T128 159Q129 127 142 107T177 86Q206 86 238 128ZM225 586Q224 587 225 593T224 611T219
632T207 649T187 657Q168 657 159 639T149 602V583Q149 529 176 463Q225 539 225 586Z" />
<glyph unicode="&apos;" glyph-name="quotesingle" horiz-adv-x="151" d="M127 735V624L72 494H22L57 624H22V735H127Z" />
<glyph unicode="(" glyph-name="parenleft" horiz-adv-x="274" d="M175 776L254 735Q249 728 241 715T210 659T172 570T142 454T128 315T141 177T172 60T209 -27T241 -85L254 -104L175 -145Q169 -136 160 -121T126 -56T82 45T48 171T32 315T46 458T82 585T124
685T160 753L175 776Z" />
<glyph unicode=")" glyph-name="parenright" horiz-adv-x="274" d="M20 735L99 776Q105 767 114 752T148 686T192 585T226 460T242 315T228 172T192 45T149 -54T114 -122L99 -145L20 -104Q25 -97 33 -84T64 -28T102 60T132 176T146 315T133 453T102 570T65 658T33
716L20 735Z" />
<glyph unicode="*" glyph-name="asterisk" horiz-adv-x="331" d="M137 649L128 735H203L194 649L274 683L295 611L211 594L267 527L203 488L165 562L128 488L64 527L120 594L36 611L57 683L137 649Z" />
<glyph unicode="+" glyph-name="plus" horiz-adv-x="518" d="M36 317V401H217V570H301V401H482V317H301V148H217V317H36Z" />
<glyph unicode="," glyph-name="comma" horiz-adv-x="151" d="M127 111V0L72 -130H22L57 0H22V111H127Z" />
<glyph unicode="-" glyph-name="hyphen" horiz-adv-x="217" d="M36 222V317H181V222H36Z" />
<glyph unicode="." glyph-name="period" horiz-adv-x="157" d="M26 0V111H131V0H26Z" />
<glyph unicode="/" glyph-name="slash" horiz-adv-x="352" d="M4 -72L269 735H348L86 -72H4Z" />
<glyph unicode="0" glyph-name="zero" horiz-adv-x="354" d="M321 151Q321 145 320 134T312 96T291 47T248 9T177 -8T107 8T64 48T43 94T34 134L33 151V584Q33 590 34 601T42 639T63 688T106 726T177 743T247 727T290 687T311 641T320 600L321 584V151ZM213 584Q213
590 213 599T203 623T177 638T151 625T142 598L141 584V151Q141 145 141 136T151 112T177 97T203 110T212 138L213 151V584Z" />
<glyph unicode="1" glyph-name="one" horiz-adv-x="232" d="M84 576H12V645Q37 650 58 661T91 684T112 708T124 728L127 735H192V0H84V576Z" />
<glyph unicode="2" glyph-name="two" horiz-adv-x="357" d="M138 502H30V553Q30 743 174 743T318 560Q318 396 149 107H320V0H27V107Q34 118 46 137T89 211T144 319T188 437T210 553Q210 643 174 643T138 553V502Z" />
<glyph unicode="3" glyph-name="three" horiz-adv-x="335" d="M121 332H112V422Q130 423 142 425T164 432T179 443T188 457T192 477T194 502T194 532Q194 546 194 553Q194 575 194 586T190 615T180 640T160 648Q140 648 135 624T128 523H22Q22 557 23 579T31 635T53
690T94 727T160 743Q198 743 226 728T267 694T289 649T298 610T300 585Q300 443 248 391L247 390Q309 341 309 188Q309 176 308 160T298 111T277 55T235 11T169 -8Q130 -8 103 7T61 44T38 99T28 157T26 212H132Q133 139 140 113T169 87Q191 87 197 111T203 180Q203
189 203 212T204 243T202 267T197 289T188 305T174 319T152 327T121 332Z" />
<glyph unicode="4" glyph-name="four" horiz-adv-x="334" d="M179 0V160H12V255L170 735H278V255H328V160H278V0H179ZM167 485L104 255H179V485V507H173L167 485Z" />
<glyph unicode="5" glyph-name="five" horiz-adv-x="344" d="M144 185Q144 129 151 108T177 86Q195 86 202 108T210 184V348Q210 402 176 402Q160 402 147 383T134 348H43V735H304V628H136V475Q140 478 146 482T169 494T198 500Q236 500 263 481T300 432T314 383T318
348V184Q318 -8 177 -8Q139 -8 112 6T71 41T48 94T38 152T36 214H144V185Z" />
<glyph unicode="6" glyph-name="six" horiz-adv-x="342" d="M314 301V151Q314 131 310 110T294 60T250 11T173 -8T96 11T53 59T36 110T32 151V569Q32 743 173 743T314 569V523H206Q206 602 201 625T173 649Q154 649 147 631T140 569V438Q169 456 194 456Q233 456
259 439T296 393T310 344T314 301ZM140 119Q140 109 148 98T173 86Q188 86 197 98T206 119V339Q206 348 197 360T173 372T150 362T140 342V119Z" />
<glyph unicode="7" glyph-name="seven" horiz-adv-x="288" d="M56 0L166 628H4V735H276V627L168 0H56Z" />
<glyph unicode="8" glyph-name="eight" horiz-adv-x="340" d="M314 243V157Q314 145 313 132T304 91T282 44T239 8T170 -8T101 8T58 44T36 91T27 131T26 157V243Q26 335 82 388Q32 438 32 523V585Q32 596 33 609T42 648T63 693T104 728T170 743T236 728T277 694T298
648T307 609T308 585V523Q308 438 258 388Q314 335 314 243ZM209 200Q209 274 203 302T170 330T138 302T131 200Q132 138 139 115T170 91Q188 91 196 105T207 140T209 200ZM202 547Q202 602 196 625T170 648Q152 648 146 627T138 547Q138 485 144 461T170 436T196
460T202 547Z" />
<glyph unicode="9" glyph-name="nine" horiz-adv-x="342" d="M28 441V584Q28 604 32 625T48 675T92 724T169 743T246 724T289 676T306 625T310 584V166Q310 -8 169 -8T28 166V212H136Q136 133 141 110T169 86Q188 86 195 104T202 166V304Q173 286 148 286Q109
286 83 303T46 349T32 398T28 441ZM202 400V616Q202 626 194 637T169 649Q154 649 145 637T136 616V403Q136 394 145 382T169 370T192 380T202 400Z" />
<glyph unicode=":" glyph-name="colon" horiz-adv-x="177" d="M36 0V111H141V0H36ZM36 436V547H141V436H36Z" />
<glyph unicode=";" glyph-name="semicolon" horiz-adv-x="177" d="M36 436V547H141V436H36ZM141 111V0L86 -130H36L71 0H36V111H141Z" />
<glyph unicode="&lt;" glyph-name="less" horiz-adv-x="517" d="M36 317V395L481 627V530L140 356L481 182V85L36 317Z" />
<glyph unicode="=" glyph-name="equal" horiz-adv-x="517" d="M36 233V317H481V233H36ZM36 422V506H481V422H36Z" />
<glyph unicode="&gt;" glyph-name="greater" horiz-adv-x="517" d="M481 395V317L36 85V182L377 356L36 530V627L481 395Z" />
<glyph unicode="?" glyph-name="question" horiz-adv-x="315" d="M97 111V0H202V111H97ZM196 198H103V323Q103 373 115 418T138 487T170 544Q191 579 196 599Q199 612 191 628T163 645Q140 646 123 622T99 574L12 615Q18 631 28 648T57 688T104 725T165 739Q205
738 232 723T272 683T290 638T295 599Q295 559 256 492Q237 461 228 446T208 394T196 323V198Z" />
<glyph unicode="@" glyph-name="at" horiz-adv-x="426" d="M398 582V195H318L308 222Q306 218 303 213T285 198T253 189Q182 189 182 273V510Q182 593 253 593Q270 593 284 585T303 568L308 560V582Q308 607 286 633T215 659T144 633T122 582V148Q122 122 143
98T215 73Q272 73 297 104L371 62Q318 -8 215 -8Q163 -8 125 9T68 53T41 104T32 148V582Q32 603 40 628T68 680T125 725T215 743T305 725T362 680T389 628T398 582ZM308 280V502Q308 528 284 528Q261 528 261 502V280Q261 254 284 254Q308 254 308 280Z" />
<glyph unicode="A" glyph-name="A" horiz-adv-x="374" d="M115 0H10L121 735H253L364 0H259L239 150H135L115 0ZM224 264L193 496L190 515H184L181 496L150 264H224Z" />
<glyph unicode="B" glyph-name="B" horiz-adv-x="364" d="M173 0H40V735H135Q235 735 283 691T332 540Q332 488 318 455T265 388Q268 387 273 384T291 367T314 335T332 283T340 208Q340 6 173 0ZM228 220Q228 260 220 285T198 320T174 331T152 333Q149 333 148
333V107Q184 107 201 122Q228 149 228 220ZM228 501T228 530T221 579T206 608T184 622T165 627T148 628V432Q159 432 164 432T184 437T206 451T221 481Z" />
<glyph unicode="C" glyph-name="C" horiz-adv-x="346" d="M220 252H321V151Q321 145 320 134T312 96T291 47T248 9T177 -8T107 8T64 48T43 94T34 134L33 151V584Q33 590 34 601T42 639T63 688T106 726T177 743T247 727T290 687T311 641T320 600L321 584V483H220V584Q219
584 220 589T219 603T213 619T201 632T179 638Q162 638 153 625T142 598L141 584V151Q141 145 142 136T152 112T179 97Q199 97 209 110T220 138V151V252Z" />
<glyph unicode="D" glyph-name="D" horiz-adv-x="372" d="M340 436T340 367T339 256T333 170T319 102T294 56T255 23T200 6T125 0H40V735H125Q169 735 200 729T255 713T294 680T318 633T332 565T338 479ZM148 627V108Q194 108 208 128Q227 155 228 284Q228 315
228 368Q229 552 216 590Q205 622 171 626Q162 627 148 627Z" />
<glyph unicode="E" glyph-name="E" horiz-adv-x="307" d="M40 0V735H287V624H148V431H248V313H148V111H287V0H40Z" />
<glyph unicode="F" glyph-name="F" horiz-adv-x="301" d="M297 735V624H148V431H248V320H148V0H40V735H297Z" />
<glyph unicode="G" glyph-name="G" horiz-adv-x="360" d="M321 471H213V584Q213 590 213 599T203 623T177 638T151 625T142 598L141 584V142Q141 136 141 127T151 103T177 88T203 101T212 128L213 142V275H170V366H321V0H257L244 35Q210 -8 160 -8Q122 -8 95 8T56
48T39 94T33 134V151V584Q33 590 34 601T42 639T63 688T106 726T177 743T247 727T290 687T311 641T320 600L321 584V471Z" />
<glyph unicode="H" glyph-name="H" horiz-adv-x="380" d="M232 0V320H148V0H40V735H148V431H232V735H340V0H232Z" />
<glyph unicode="I" glyph-name="I" horiz-adv-x="188" d="M40 0V735H148V0H40Z" />
<glyph unicode="J" glyph-name="J" horiz-adv-x="207" d="M6 -7V99Q8 99 12 99T26 99T43 105T57 122T64 153V735H172V136Q172 69 134 29T6 -7Z" />
<glyph unicode="K" glyph-name="K" horiz-adv-x="375" d="M40 735H148V490V478H152L157 490L247 735H352L253 493L365 0H260L185 320L182 335H179L173 320L148 260V0H40V735Z" />
<glyph unicode="L" glyph-name="L" horiz-adv-x="295" d="M40 0V735H148V100H291V0H40Z" />
<glyph unicode="M" glyph-name="M" horiz-adv-x="484" d="M265 0H219L150 462L146 493H140V462V0H40V735H172L236 399L241 360H243L248 399L312 735H444V0H344V462V493H338L334 462L265 0Z" />
<glyph unicode="N" glyph-name="N" horiz-adv-x="395" d="M259 0L154 383L145 417H139V383V0H40V735H136L241 352L250 318H256V352V735H355V0H259Z" />
<glyph unicode="O" glyph-name="O" horiz-adv-x="354" d="M321 151Q321 145 320 134T312 96T291 47T248 9T177 -8T107 8T64 48T43 94T34 134L33 151V584Q33 590 34 601T42 639T63 688T106 726T177 743T247 727T290 687T311 641T320 600L321 584V151ZM213 584Q213
590 213 599T203 623T177 638T151 625T142 598L141 584V151Q141 145 141 136T151 112T177 97T203 110T212 138L213 151V584Z" />
<glyph unicode="P" glyph-name="P" horiz-adv-x="352" d="M40 0V735H148Q229 735 283 684T338 515T284 346T148 294V0H40ZM148 625V404Q198 404 213 426T229 511Q229 575 213 600T148 625Z" />
<glyph unicode="Q" glyph-name="Q" horiz-adv-x="356" d="M321 151Q321 105 299 62Q315 41 342 36V-56Q264 -56 231 1Q204 -8 177 -8Q136 -8 107 8T64 48T43 94T34 134L33 151V584Q33 590 34 601T42 639T63 688T106 726T177 743T247 727T290 687T311 641T320 600L321
584V151ZM213 584Q213 590 213 599T203 623T177 638T151 625T142 598L141 584V151Q141 145 141 136T151 112T177 97T203 110T212 138L213 151V584Z" />
<glyph unicode="R" glyph-name="R" horiz-adv-x="361" d="M341 0H233L177 310H148V0H40V735H148Q332 735 332 523Q332 397 272 356L341 0ZM228 482T228 519T221 580T199 613T174 625T148 628V410Q163 410 173 412T198 424T220 458Z" />
<glyph unicode="S" glyph-name="S" horiz-adv-x="343" d="M33 571Q33 639 68 690T174 743Q220 744 252 726T298 677T319 615T325 548L219 538Q219 644 176 644Q139 643 139 571Q139 562 141 552T146 533T155 512T165 492T178 471T192 450T208 427T224 404Q260
350 275 326T307 258T325 177Q325 -8 175 -8Q135 -8 106 4T60 35T34 84T21 141T18 206L124 216Q124 91 175 91Q219 91 219 172Q219 186 215 201T200 237T182 268T156 306T132 342Q100 389 82 419T49 491T33 571Z" />
<glyph unicode="T" glyph-name="T" horiz-adv-x="316" d="M104 624H2V735H314V624H212V0H104V624Z" />
<glyph unicode="U" glyph-name="U" horiz-adv-x="366" d="M219 735H327V151Q327 145 326 134T318 96T297 47T254 9T183 -8T113 8T70 48T49 94T40 134L39 151V735H147V151Q147 145 147 136T157 112T183 97T209 110T218 138L219 151V735Z" />
<glyph unicode="V" glyph-name="V" horiz-adv-x="350" d="M182 331L236 735H341L229 0H121L9 735H114L168 331L172 300H178L182 331Z" />
<glyph unicode="W" glyph-name="W" horiz-adv-x="506" d="M245 348L195 0H111L12 735H112L155 353L157 329H165L168 353L214 735H292L338 353L341 329H349L351 353L394 735H494L395 0H311L261 348L255 391H251L245 348Z" />
<glyph unicode="X" glyph-name="X" horiz-adv-x="360" d="M176 219L114 0H8L127 386L10 735H116L175 549L178 540H182L185 549L244 735H350L233 386L352 0H246L184 219L182 228H178L176 219Z" />
<glyph unicode="Y" glyph-name="Y" horiz-adv-x="342" d="M113 735L167 500L170 493H172L175 500L229 735H335L225 313V0H117V313L7 735H113Z" />
<glyph unicode="Z" glyph-name="Z" horiz-adv-x="306" d="M10 0V116L179 628H34V735H296V628L124 107H296V0H10Z" />
<glyph unicode="[" glyph-name="bracketleft" horiz-adv-x="263" d="M235 735V639H136V-8H235V-104H40V-8V735H235Z" />
<glyph unicode="\" glyph-name="backslash" horiz-adv-x="387" d="M83 826L383 -88H301L4 826H83Z" />
<glyph unicode="]" glyph-name="bracketright" horiz-adv-x="263" d="M28 639V735H223V-8V-104H28V-8H127V639H28Z" />
<glyph unicode="^" glyph-name="asciicircum" horiz-adv-x="538" d="M212 735H326L512 395H415L269 660L123 395H26L212 735Z" />
<glyph unicode="_" glyph-name="underscore" horiz-adv-x="591" d="M36 -159V-75H555V-159H36Z" />
<glyph unicode="`" glyph-name="grave" horiz-adv-x="500" d="M143 727H248L300 637H222L143 727Z" />
<glyph unicode="a" glyph-name="a" horiz-adv-x="333" d="M123 142Q123 91 151 91Q168 91 180 100T193 124V264Q123 234 123 142ZM24 127Q24 179 40 218T81 279T129 314T172 339T193 357V375V417Q193 467 165 467Q155 467 149 463T141 447T137 429T136 406T136
386H35V409Q35 469 74 512T171 555Q221 555 257 519T294 431V260V95Q294 42 301 0H202Q193 10 193 44H186Q176 26 154 9T105 -8Q76 -8 50 21T24 127Z" />
<glyph unicode="b" glyph-name="b" horiz-adv-x="335" d="M40 0V735H141V511Q184 555 221 555Q259 555 279 522T299 448V99Q299 59 279 26T221 -8Q205 -8 185 3T153 25L141 36V0H40ZM141 120Q141 106 150 97T171 87T190 96T198 120V427Q198 441 190 450T171 460T151
450T141 427V120Z" />
<glyph unicode="c" glyph-name="c" horiz-adv-x="315" d="M133 421V126Q133 82 161 82Q178 82 184 91T190 126V202H291V149Q291 61 260 27T161 -8Q32 -8 32 154V393Q32 555 161 555Q228 555 259 521T291 398V355H190V421Q190 446 184 455T161 465Q133 465 133 421Z" />
<glyph unicode="d" glyph-name="d" horiz-adv-x="335" d="M295 735V0H194V36Q151 -8 114 -8Q76 -8 56 25T36 99V448Q36 488 56 521T114 555Q130 555 150 544T182 522L194 511V735H295ZM194 120V427Q194 439 185 449T164 460T145 451T137 427V120Q137 106 145 97T164
87T184 96T194 120Z" />
<glyph unicode="e" glyph-name="e" horiz-adv-x="322" d="M199 196H293V133Q293 127 292 118T284 84T265 41T226 7T162 -8Q126 -8 99 7T60 43T41 85T33 121L32 136V411Q32 417 33 426T41 461T60 505T100 539T163 555Q200 555 226 541T265 505T285 464T292 428L293
414V255H126V136Q126 134 126 130T128 117T133 100T145 87T163 81Q180 81 189 94T198 122L199 136V196ZM126 411V334H199V411Q199 417 199 426T189 451T163 467Q147 467 138 453T127 425L126 411Z" />
<glyph unicode="f" glyph-name="f" horiz-adv-x="232" d="M162 0H61V456H10V547H61V555V562Q61 587 62 603T69 648T86 694T120 725T177 739Q191 739 203 738T220 734L224 732V645Q211 649 194 649Q162 649 162 561V553V547H213V456H162V0Z" />
<glyph unicode="g" glyph-name="g" horiz-adv-x="342" d="M287 419V264Q287 259 286 250T278 217T258 176T220 144T157 129Q144 129 138 130Q124 118 124 105Q124 97 129 91T150 81T172 76T201 71Q229 67 250 61T294 41T328 3T341 -56Q341 -130 291 -163T168 -196Q88
-194 47 -171T6 -90Q6 -44 85 -7Q24 10 24 66Q24 88 43 111T87 148Q62 165 48 194T31 246L29 267V416Q29 422 30 431T38 464T57 506T95 540T157 555Q223 555 258 505Q308 555 341 555V465Q306 465 282 453L287 419ZM188 412Q187 412 188 417T187 429T183 444T174
457T157 462Q143 462 136 450T128 424V412V262Q128 257 128 249T135 227T157 213Q172 213 180 225T188 250V262V412ZM247 -74Q247 -58 237 -50T193 -35L141 -25Q104 -46 104 -73Q104 -111 170 -111Q199 -111 223 -102T247 -74Z" />
<glyph unicode="h" glyph-name="h" horiz-adv-x="337" d="M174 457Q165 457 157 451T145 438L141 431V0H40V735H141V501Q142 502 156 516T189 543T223 555Q260 555 279 522T299 448V0H198V433Q198 457 174 457Z" />
<glyph unicode="i" glyph-name="i" horiz-adv-x="181" d="M141 0H40V547H141V0ZM40 634V735H141V634H40Z" />
<glyph unicode="j" glyph-name="j" horiz-adv-x="178" d="M37 634V735H138V634H37ZM37 547H138V-14Q138 -39 137 -55T130 -99T113 -144T79 -174T22 -188Q8 -188 -3 -187T-18 -184L-22 -182V-89Q-8 -93 6 -93Q38 -93 37 -19Q37 -15 37 -13V547Z" />
<glyph unicode="k" glyph-name="k" horiz-adv-x="313" d="M40 735H141V404V386H146L152 404L201 547H292L219 369L311 0H214L164 221L162 229H157L154 221L141 189V0H40V735Z" />
<glyph unicode="l" glyph-name="l" horiz-adv-x="181" d="M141 0H40V735H141V0Z" />
<glyph unicode="m" glyph-name="m" horiz-adv-x="499" d="M339 457Q330 457 321 451T306 438L301 431V0H206V433Q206 457 179 457Q170 457 161 451T146 438L141 431V0H40V547H141V501Q142 501 157 516T190 543T225 555Q274 555 293 494Q295 496 314 514T351 543T385
555Q422 555 441 522T461 448V0H366V433Q366 457 339 457Z" />
<glyph unicode="n" glyph-name="n" horiz-adv-x="337" d="M174 457Q165 457 157 451T145 438L141 431V0H40V547H141V501Q142 502 156 516T189 543T223 555Q260 555 279 522T299 448V0H198V433Q198 457 174 457Z" />
<glyph unicode="o" glyph-name="o" horiz-adv-x="321" d="M290 414V133Q290 127 290 118T282 84T263 41T224 7T160 -8Q124 -8 97 7T58 43T39 85T32 121L31 136V411Q31 417 31 426T39 461T58 505T97 539T160 555Q197 555 223 541T262 505T282 464T290 428V414ZM195
411Q194 411 195 416T194 430T189 447T179 461T160 467Q144 467 136 453T126 425V411V136Q127 136 126 131T127 117T132 100T142 87T160 81Q177 81 185 94T194 122L195 136V411Z" />
<glyph unicode="p" glyph-name="p" horiz-adv-x="335" d="M40 -188V547H141V511Q184 555 221 555Q259 555 279 522T299 448V99Q299 59 279 26T221 -8Q205 -8 185 3T153 25L141 36V-188H40ZM141 427V120Q141 108 150 98T171 87T190 96T198 120V427Q198 441 190
450T171 460T151 451T141 427Z" />
<glyph unicode="q" glyph-name="q" horiz-adv-x="335" d="M295 547V-188H194V36Q151 -8 114 -8Q76 -8 56 25T36 99V448Q36 488 56 521T114 555Q130 555 150 544T182 522L194 511V547H295ZM194 427Q194 441 185 450T164 460T145 451T137 427V120Q137 106 145 97T164
87T184 97T194 120V427Z" />
<glyph unicode="r" glyph-name="r" horiz-adv-x="246" d="M242 555V443Q195 458 163 430Q141 410 141 380V0H40V547H141V486Q145 506 169 530T242 555Z" />
<glyph unicode="s" glyph-name="s" horiz-adv-x="308" d="M35 407Q35 434 41 458T60 504T98 540T158 555Q200 556 227 543T267 504T283 458T287 407H193Q193 471 160 471Q129 470 129 407Q129 391 140 372T162 341T195 309Q288 220 288 142Q288 82 257 37T159
-8Q124 -8 98 4T56 33T32 75T21 118T18 159H112Q112 76 159 76Q194 76 194 142Q194 178 131 239Q98 271 83 287T52 336T35 407Z" />
<glyph unicode="t" glyph-name="t" horiz-adv-x="245" d="M61 682H162V547H231V456H162V184Q162 94 194 94L231 98V-1Q209 -8 177 -8Q144 -8 121 6T86 37T69 84T62 131T61 176V456H10V547H61V682Z" />
<glyph unicode="u" glyph-name="u" horiz-adv-x="337" d="M163 90Q172 90 180 96T192 110L196 116V547H297V0H196V46Q195 45 181 31T148 4T114 -8Q77 -8 58 25T38 99V547H139V114Q139 90 163 90Z" />
<glyph unicode="v" glyph-name="v" horiz-adv-x="294" d="M197 0H97L8 547H106L139 230L143 195H151L155 230L188 547H286L197 0Z" />
<glyph unicode="w" glyph-name="w" horiz-adv-x="442" d="M351 0H267L228 261L223 292H219L214 261L175 0H91L10 547H102L134 261L138 230H144L149 261L191 547H251L293 261L298 230H304L308 261L340 547H432L351 0Z" />
<glyph unicode="x" glyph-name="x" horiz-adv-x="302" d="M8 0L102 282L16 547H111L147 419L150 404H152L155 419L191 547H286L200 282L294 0H196L155 138L152 153H150L147 138L106 0H8Z" />
<glyph unicode="y" glyph-name="y" horiz-adv-x="310" d="M16 -194V-104Q24 -106 40 -106Q70 -103 87 -76T105 -16L12 547H111L151 211L153 183H157L159 211L199 547H298L201 -41Q193 -103 155 -149T61 -196L16 -194Z" />
<glyph unicode="z" glyph-name="z" horiz-adv-x="260" d="M6 0V82L145 455H28V547H252V465L113 92H252V0H6Z" />
<glyph unicode="{" glyph-name="braceleft" horiz-adv-x="336" d="M94 563Q94 672 141 708T308 743V659Q242 660 216 641T190 563V369Q190 299 128 261Q190 221 190 153V-41Q190 -99 216 -118T308 -137V-221Q188 -223 141 -187T94 -41V153Q94 163 90 176T70 204T30
221V301Q65 301 79 325T94 369V563Z" />
<glyph unicode="|" glyph-name="bar" horiz-adv-x="174" d="M134 -250H40V826H134V-250Z" />
<glyph unicode="}" glyph-name="braceright" horiz-adv-x="336" d="M242 563V369Q242 358 246 345T266 316T306 301V221Q271 219 257 196T242 153V-41Q242 -150 195 -186T28 -221V-137Q94 -138 120 -119T146 -41V153Q146 221 208 261Q146 299 146 369V563Q146
621 120 640T28 659V743Q148 745 195 709T242 563Z" />
<glyph unicode="~" glyph-name="asciitilde" horiz-adv-x="625" d="M250 720T219 720T164 698T130 654L121 632L55 660Q57 666 61 676T79 712T111 758T157 794T219 810Q246 810 273 801T313 785T354 760Q406 725 439 725Q467 725 490 747T523 792L532 814L598
786Q596 780 592 770T574 733T542 688T498 652T439 635Q380 635 306 684Q250 720 219 720Z" />
</font>
</defs>
</svg>
